  0
SECTION
  2
HEADER
  9
$ACADVER
  1
AC1015
  9
$ACADMAINTVER
 70
    20
  9
$DWGCODEPAGE
  3
ANSI_932
  9
$INSBASE
 10
0.0
 20
0.0
 30
0.0
  9
$EXTMIN
 10
199.7438145239648
 20
149.9512548569482
 30
-0.0015258207003583
  9
$EXTMAX
 10
4050.122995223062
 20
2820.08560833764
 30
0.0000000349246037
  9
$LIMMIN
 10
19.99999999999994
 20
15.0
  9
$LIMMAX
 10
3870.0
 20
2685.0
  9
$ORTHOMODE
 70
     0
  9
$REGENMODE
 70
     1
  9
$FILLMODE
 70
     1
  9
$QTEXTMODE
 70
     0
  9
$MIRRTEXT
 70
     1
  9
$LTSCALE
 40
10.0
  9
$ATTMODE
 70
     1
  9
$TEXTSIZE
 40
1.0
  9
$TRACEWID
 40
1.0
  9
$TEXTSTYLE
  7
STANDARD
  9
$CLAYER
  8
AM_0
  9
$CELTYPE
  6
ByLayer
  9
$CECOLOR
 62
   256
  9
$CELTSCALE
 40
1.0
  9
$DISPSILH
 70
     0
  9
$DIMSCALE
 40
10.0
  9
$DIMASZ
 40
2.5
  9
$DIMEXO
 40
1.0
  9
$DIMDLI
 40
10.0
  9
$DIMRND
 40
0.0
  9
$DIMDLE
 40
0.0
  9
$DIMEXE
 40
1.0
  9
$DIMTP
 40
0.1
  9
$DIMTM
 40
0.1
  9
$DIMTXT
 40
3.5
  9
$DIMCEN
 40
0.0
  9
$DIMTSZ
 40
0.0
  9
$DIMTOL
 70
     0
  9
$DIMLIM
 70
     0
  9
$DIMTIH
 70
     0
  9
$DIMTOH
 70
     0
  9
$DIMSE1
 70
     0
  9
$DIMSE2
 70
     0
  9
$DIMTAD
 70
     1
  9
$DIMZIN
 70
     8
  9
$DIMBLK
  1

  9
$DIMASO
 70
     1
  9
$DIMSHO
 70
     1
  9
$DIMPOST
  1

  9
$DIMAPOST
  1
"
  9
$DIMALT
 70
     0
  9
$DIMALTD
 70
     2
  9
$DIMALTF
 40
0.0393701
  9
$DIMLFAC
 40
1.0
  9
$DIMTOFL
 70
     1
  9
$DIMTVP
 40
0.0
  9
$DIMTIX
 70
     0
  9
$DIMSOXD
 70
     0
  9
$DIMSAH
 70
     0
  9
$DIMBLK1
  1

  9
$DIMBLK2
  1

  9
$DIMSTYLE
  2
AM_ISO
  9
$DIMCLRD
 70
   256
  9
$DIMCLRE
 70
   256
  9
$DIMCLRT
 70
     2
  9
$DIMTFAC
 40
0.71
  9
$DIMGAP
 40
1.5
  9
$DIMJUST
 70
     0
  9
$DIMSD1
 70
     0
  9
$DIMSD2
 70
     0
  9
$DIMTOLJ
 70
     0
  9
$DIMTZIN
 70
     8
  9
$DIMALTZ
 70
     0
  9
$DIMALTTZ
 70
     0
  9
$DIMUPT
 70
     0
  9
$DIMDEC
 70
     2
  9
$DIMTDEC
 70
     3
  9
$DIMALTU
 70
     2
  9
$DIMALTTD
 70
     4
  9
$DIMTXSTY
  7
STANDARD
  9
$DIMAUNIT
 70
     0
  9
$DIMADEC
 70
     0
  9
$DIMALTRND
 40
0.0
  9
$DIMAZIN
 70
     2
  9
$DIMDSEP
 70
    46
  9
$DIMATFIT
 70
     3
  9
$DIMFRAC
 70
     0
  9
$DIMLDRBLK
  1

  9
$DIMLUNIT
 70
     2
  9
$DIMLWD
 70
    -1
  9
$DIMLWE
 70
    -1
  9
$DIMTMOVE
 70
     0
  9
$LUNITS
 70
     2
  9
$LUPREC
 70
     2
  9
$SKETCHINC
 40
1.0
  9
$FILLETRAD
 40
25.0
  9
$AUNITS
 70
     0
  9
$AUPREC
 70
     0
  9
$MENU
  1
.
  9
$ELEVATION
 40
0.0
  9
$PELEVATION
 40
0.0
  9
$THICKNESS
 40
0.0
  9
$LIMCHECK
 70
     0
  9
$CHAMFERA
 40
25.0
  9
$CHAMFERB
 40
25.0
  9
$CHAMFERC
 40
20.0
  9
$CHAMFERD
 40
0.0
  9
$SKPOLY
 70
     0
  9
$TDCREATE
 40
2454069.462247894
  9
$TDUCREATE
 40
2454069.087247894
  9
$TDUPDATE
 40
2454778.443392106
  9
$TDUUPDATE
 40
2454778.068392106
  9
$TDINDWG
 40
0.0227170139
  9
$TDUSRTIMER
 40
0.0227170139
  9
$USRTIMER
 70
     1
  9
$ANGBASE
 50
0.0
  9
$ANGDIR
 70
     0
  9
$PDMODE
 70
     0
  9
$PDSIZE
 40
0.0
  9
$PLINEWID
 40
0.0
  9
$SPLFRAME
 70
     0
  9
$SPLINETYPE
 70
     6
  9
$SPLINESEGS
 70
     8
  9
$HANDSEED
  5
E46
  9
$SURFTAB1
 70
     6
  9
$SURFTAB2
 70
     6
  9
$SURFTYPE
 70
     6
  9
$SURFU
 70
     6
  9
$SURFV
 70
     6
  9
$UCSBASE
  2

  9
$UCSNAME
  2

  9
$UCSORG
 10
0.0
 20
0.0
 30
0.0
  9
$UCSXDIR
 10
1.0
 20
0.0
 30
0.0
  9
$UCSYDIR
 10
0.0
 20
1.0
 30
0.0
  9
$UCSORTHOREF
  2

  9
$UCSORTHOVIEW
 70
     0
  9
$UCSORGTOP
 10
0.0
 20
0.0
 30
0.0
  9
$UCSORGBOTTOM
 10
0.0
 20
0.0
 30
0.0
  9
$UCSORGLEFT
 10
0.0
 20
0.0
 30
0.0
  9
$UCSORGRIGHT
 10
0.0
 20
0.0
 30
0.0
  9
$UCSORGFRONT
 10
0.0
 20
0.0
 30
0.0
  9
$UCSORGBACK
 10
0.0
 20
0.0
 30
0.0
  9
$PUCSBASE
  2

  9
$PUCSNAME
  2

  9
$PUCSORG
 10
0.0
 20
0.0
 30
0.0
  9
$PUCSXDIR
 10
1.0
 20
0.0
 30
0.0
  9
$PUCSYDIR
 10
0.0
 20
1.0
 30
0.0
  9
$PUCSORTHOREF
  2

  9
$PUCSORTHOVIEW
 70
     0
  9
$PUCSORGTOP
 10
0.0
 20
0.0
 30
0.0
  9
$PUCSORGBOTTOM
 10
0.0
 20
0.0
 30
0.0
  9
$PUCSORGLEFT
 10
0.0
 20
0.0
 30
0.0
  9
$PUCSORGRIGHT
 10
0.0
 20
0.0
 30
0.0
  9
$PUCSORGFRONT
 10
0.0
 20
0.0
 30
0.0
  9
$PUCSORGBACK
 10
0.0
 20
0.0
 30
0.0
  9
$USERI1
 70
     0
  9
$USERI2
 70
     0
  9
$USERI3
 70
     0
  9
$USERI4
 70
     0
  9
$USERI5
 70
     0
  9
$USERR1
 40
0.0
  9
$USERR2
 40
0.0
  9
$USERR3
 40
0.0
  9
$USERR4
 40
0.0
  9
$USERR5
 40
0.0
  9
$WORLDVIEW
 70
     1
  9
$SHADEDGE
 70
     3
  9
$SHADEDIF
 70
    70
  9
$TILEMODE
 70
     1
  9
$MAXACTVP
 70
    64
  9
$PINSBASE
 10
0.0
 20
0.0
 30
0.0
  9
$PLIMCHECK
 70
     0
  9
$PEXTMIN
 10
1.000000000000000E+20
 20
1.000000000000000E+20
 30
1.000000000000000E+20
  9
$PEXTMAX
 10
-1.000000000000000E+20
 20
-1.000000000000000E+20
 30
-1.000000000000000E+20
  9
$PLIMMIN
 10
0.0
 20
0.0
  9
$PLIMMAX
 10
420.0
 20
297.0
  9
$UNITMODE
 70
     0
  9
$VISRETAIN
 70
     1
  9
$PLINEGEN
 70
     0
  9
$PSLTSCALE
 70
     1
  9
$TREEDEPTH
 70
  3020
  9
$CMLSTYLE
  2
Standard
  9
$CMLJUST
 70
     0
  9
$CMLSCALE
 40
20.0
  9
$PROXYGRAPHICS
 70
     1
  9
$MEASUREMENT
 70
     1
  9
$CELWEIGHT
370
    -1
  9
$ENDCAPS
280
     0
  9
$JOINSTYLE
280
     0
  9
$LWDISPLAY
290
     0
  9
$INSUNITS
 70
     4
  9
$HYPERLINKBASE
  1

  9
$STYLESHEET
  1
monochrome.ctb
  9
$XEDIT
290
     1
  9
$CEPSNTYPE
380
     0
  9
$PSTYLEMODE
290
     1
  9
$FINGERPRINTGUID
  2
{16092497-ED4E-447F-9495-9C690A0A38D8}
  9
$VERSIONGUID
  2
{CE4154A3-F76B-4623-8C0E-17EF6F5B93E2}
  9
$EXTNAMES
290
     1
  9
$PSVPSCALE
 40
0.0
  9
$OLESTARTUP
290
     0
  0
ENDSEC
  0
SECTION
  2
CLASSES
  0
CLASS
  1
ACDBDICTIONARYWDFLT
  2
AcDbDictionaryWithDefault
  3
ObjectDBX Classes
 90
        0
280
     0
281
     0
  0
CLASS
  1
ACDBPLACEHOLDER
  2
AcDbPlaceHolder
  3
ObjectDBX Classes
 90
        0
280
     0
281
     0
  0
CLASS
  1
LAYOUT
  2
AcDbLayout
  3
ObjectDBX Classes
 90
        0
280
     0
281
     0
  0
CLASS
  1
ACME_DOCUMENT
  2
AcMeDbDoc
  3
AcMeServices
 90
        0
280
     0
281
     0
  0
CLASS
  1
AMGSETTINGSOBJ
  2
AmgSettingsObj
  3
"AcadM|Product Description: AutoCAD Mechanical 2000|Company: Autodesk"
 90
        0
280
     0
281
     0
  0
CLASS
  1
ACMESCOPE
  2
AcMeScope
  3
AcMeServices
 90
        0
280
     0
281
     0
  0
CLASS
  1
ACMECOMMANDHISTORY
  2
AcMeCommandHistory
  3
AcMeServices
 90
        0
280
     0
281
     0
  0
CLASS
  1
ACIMSYSVARMAN
  2
AcImSysVarManager
  3
AcMeServices
 90
        0
280
     0
281
     0
  0
CLASS
  1
ACIMREALSYSVAR
  2
AcImRealSysVar
  3
AcMeServices
 90
        0
280
     0
281
     0
  0
CLASS
  1
ACIMINTSYSVAR
  2
AcImIntSysVar
  3
AcMeServices
 90
        0
280
     0
281
     0
  0
CLASS
  1
ACMEDRAWINGMAN
  2
AcMeDrawingMan
  3
AcMeServices
 90
        0
280
     0
281
     0
  0
CLASS
  1
ACMEVIEW
  2
AcMeView
  3
AcMeServices
 90
        0
280
     0
281
     0
  0
CLASS
  1
ACDBENTITYCACHE
  2
AcMeEntityCache
  3
AcMeServices
 90
        0
280
     0
281
     0
  0
CLASS
  1
GSMANAGER
  2
AcMeGSManager
  3
AcMeServices
 90
        0
280
     0
281
     0
  0
CLASS
  1
AMDTINTERNALREACTOR
  2
AmdtInternalReactor
  3
AcMeServices
 90
        0
280
     0
281
     0
  0
CLASS
  1
ACMESTATEMGR
  2
AcMeStateMgr
  3
AcMeServices
 90
        0
280
     0
281
     0
  0
CLASS
  1
ACGREFMASTER
  2
AcGrefMaster
  3
AcAttribServices
 90
        0
280
     0
281
     0
  0
CLASS
  1
ACME_DATABASE
  2
AcMeDbDatabase
  3
AcMeServices
 90
        0
280
     0
281
     0
  0
CLASS
  1
ACRFINSADJUSTERMGR
  2
AcRfInsAdjusterMgr
  3
AcMeServices
 90
        0
280
     0
281
     0
  0
CLASS
  1
ACGREFACADMASTER
  2
AcGrefacadMaster
  3
AcGrefServices
 90
        0
280
     0
281
     0
  0
CLASS
  1
AMIMASTER
  2
AmiMaster
  3
AmiServices
 90
        0
280
     0
281
     0
  0
CLASS
  1
ACMDATADICTIONARY
  2
AcmDataDictionary
  3
"AcmSymBB|Product Description: AutoCAD Mechanical 2004 DX|Company: Autodesk"
 90
        0
280
     0
281
     0
  0
CLASS
  1
ACMDATAENTRYBLOCK
  2
AcmDataEntryBlock
  3
"AcmSymBB|Product Description: AutoCAD Mechanical 2004 DX|Company: Autodesk"
 90
    32768
280
     0
281
     0
  0
CLASS
  1
ACIMSTRSYSVAR
  2
AcImStrSysVar
  3
AcMeServices
 90
        0
280
     0
281
     0
  0
CLASS
  1
ACMSTANDARDISO
  2
AcmStandardISO
  3
"Amdt_StdImp|Product Description: AutoCAD Mechanical 2004 DX|Company: Autodesk"
 90
        0
280
     0
281
     0
  0
CLASS
  1
AMGOBJPROPCFG
  2
AmgObjPropCfg
  3
"AmgLay|Product Description: AutoCAD Mechanical 2000|Company: Autodesk"
 90
        1
280
     0
281
     0
  0
CLASS
  1
AMDTEDGESTANDARDISO
  2
AmdtEdgeStdISO
  3
"Amdt_StdImp|Product Description: AutoCAD Mechanical 2004 DX|Company: Autodesk"
 90
    32768
280
     0
281
     0
  0
CLASS
  1
ACMSURFSTANDARDISO
  2
AcmSurfTextStdISO
  3
"Amdt_StdImp|Product Description: AutoCAD Mechanical 2004 DX|Company: Autodesk"
 90
        0
280
     0
281
     0
  0
CLASS
  1
ACMFCFSTANDARDISO
  2
AcmFCFStdISO
  3
"Amdt_StdImp|Product Description: AutoCAD Mechanical 2004 DX|Company: Autodesk"
 90
        0
280
     0
281
     0
  0
CLASS
  1
ACMWELDSTANDARDISO
  2
AcmWeldingStdISO
  3
"Amdt_StdImp|Product Description: AutoCAD Mechanical 2004 DX|Company: Autodesk"
 90
        0
280
     0
281
     0
  0
CLASS
  1
ACMIDSTANDARDISO
  2
AcmIdStdISO
  3
"Amdt_StdImp|Product Description: AutoCAD Mechanical 2004 DX|Company: Autodesk"
 90
        0
280
     0
281
     0
  0
CLASS
  1
ACMDATUMSTANDARDISO
  2
AcmDatumStdISO
  3
"Amdt_StdImp|Product Description: AutoCAD Mechanical 2004 DX|Company: Autodesk"
 90
        0
280
     0
281
     0
  0
CLASS
  1
ACMBOMSTANDARDISO
  2
AcmBOMStdISO
  3
"Amdt_StdImp|Product Description: AutoCAD Mechanical 2004 DX|Company: Autodesk"
 90
        0
280
     0
281
     0
  0
CLASS
  1
ACMDETAILSTANDARDISO
  2
AmdtDetailSymStdISO
  3
"Amdt_StdImp|Product Description: AutoCAD Mechanical 2004 DX|Company: Autodesk"
 90
        0
280
     0
281
     0
  0
CLASS
  1
ACMSECTIONSTANDARDISO
  2
AmdtSectionSymStdISO
  3
"Amdt_StdImp|Product Description: AutoCAD Mechanical 2004 DX|Company: Autodesk"
 90
        0
280
     0
281
     0
  0
CLASS
  1
ACMCENTERLINESTANDARDISO
  2
AmdtCenterLineStdISO
  3
"Amdt_StdImp|Product Description: AutoCAD Mechanical 2004 DX|Company: Autodesk"
 90
        0
280
     0
281
     0
  0
CLASS
  1
ACMNOTESTANDARDISO
  2
AmdtNoteStdISO
  3
"Amdt_StdImp|Product Description: AutoCAD Mechanical 2004 DX|Company: Autodesk"
 90
        0
280
     0
281
     0
  0
CLASS
  1
ACAMGLAYSTD
  2
AcAmgLayStd
  3
"AcAmgLayStd|Product Description: AutoCAD Mechanical 2000|Company: Autodesk"
 90
        0
280
     0
281
     0
  0
CLASS
  1
ACAMGDIMSTD
  2
AcAmgDimStd
  3
"AcAmgDimStd|Product Description: AutoCAD Mechanical 2000|Company: Autodesk"
 90
        0
280
     0
281
     0
  0
CLASS
  1
ACAMGHOLECHARTSTDISO
  2
AcAmgHoleChartStdISO
  3
ACMSYMBB_MODULE_NAME
 90
        0
280
     0
281
     0
  0
CLASS
  1
ACAMGTITLESTD
  2
AcAmgTitleStd
  3
"TITLEAPP"
 90
        0
280
     0
281
     0
  0
CLASS
  1
LAYER_INDEX
  2
AcDbLayerIndex
  3
ObjectDBX Classes
 90
    32768
280
     0
281
     0
  0
CLASS
  1
IDBUFFER
  2
AcDbIdBuffer
  3
ObjectDBX Classes
 90
    32768
280
     0
281
     0
  0
CLASS
  1
DICTIONARYVAR
  2
AcDbDictionaryVar
  3
ObjectDBX Classes
 90
        0
280
     0
281
     0
  0
CLASS
  1
AM_DRAWING_MGR
  2
AcDmDwgMgr
  3
AcMechDwgViewMgmt
 90
        0
280
     0
281
     0
  0
CLASS
  1
AM_DWG_DOCUMENT
  2
AcDmDwgDocument
  3
AcMechDwgViewMgmt
 90
        0
280
     0
281
     0
  0
CLASS
  1
AM_DWG_SHEET
  2
AcDmSheet
  3
AcMechDwgViewMgmt
 90
        0
280
     0
281
     0
  0
CLASS
  1
AM_VIEWDIMPARMAP
  2
AcDmViewDimParMap
  3
AcMechDwgViewMgmt
 90
        0
280
     0
281
     0
  0
CLASS
  1
AM_DWGMGR_NAME
  2
AcDmDwgMgrName
  3
AcMechDwgViewMgmt
 90
        0
280
     0
281
     0
  0
CLASS
  1
AMDTMENUSTATEMGR
  2
AmdtMenuStateMgr
  3
McadcomServices
 90
        0
280
     0
281
     0
  0
CLASS
  1
AMDTMCOMMENUSTATE
  2
AmdtMcomMenuState
  3
McadcomServices
 90
        0
280
     0
281
     0
  0
CLASS
  1
MAPIAMMOUDLE
  2
MApiAmModule
  3
MApiAmServices
 90
        0
280
     0
281
     0
  0
CLASS
  1
AMDTADMENUSTATE
  2
AmdtAdMenuState
  3
DesignerServices
 90
        0
280
     0
281
     0
  0
CLASS
  1
ADAPPL
  2
AcAdAppl
  3
DesignerServices
 90
        0
280
     0
281
     0
  0
CLASS
  1
DEPMGR
  2
AcAdDepMgr
  3
DesignerServices
 90
        0
280
     0
281
     0
  0
CLASS
  1
PARAMMGR
  2
AcAdParamMgr
  3
DesignerServices
 90
        0
280
     0
281
     0
  0
CLASS
  1
PARAMSCOPE
  2
AcAdParamScope
  3
DesignerServices
 90
        0
280
     0
281
     0
  0
CLASS
  1
NAMEDAPPL
  2
AcAdNamedAppl
  3
DesignerServices
 90
        0
280
     0
281
     0
  0
CLASS
  1
AMDTDMMENUSTATE
  2
AmdtDmMenuState
  3
AcMechDwgViewMgmt
 90
        0
280
     0
281
     0
  0
CLASS
  1
AMDTAMMENUSTATE
  2
AmdtAmMenuState
  3
DesignerAssemblies
 90
        0
280
     0
281
     0
  0
CLASS
  1
ACAMPROJECT
  2
AcAmProject
  3
DesignerAssemblies
 90
        0
280
     0
281
     0
  0
CLASS
  1
ACAMGRCOMPDEF
  2
AcAmGrCompDef
  3
DesignerAssemblies
 90
        0
280
     0
281
     0
  0
CLASS
  1
ACCMCONTEXT
  2
AcCmContext
  3
DesignerAssemblies
 90
        0
280
     0
281
     0
  0
CLASS
  1
ACAMCOMPDEF
  2
AcAmCompDef
  3
DesignerAssemblies
 90
        0
280
     0
281
     0
  0
CLASS
  1
ACAMCOMPDEFMGR
  2
AcAmCompDefMgr
  3
DesignerAssemblies
 90
        0
280
     0
281
     0
  0
CLASS
  1
AMCONTEXTMGR
  2
AcAmContextMgr
  3
DesignerAssemblies
 90
        0
280
     0
281
     0
  0
CLASS
  1
ACAMCONTEXTMODELER
  2
AcAmContextModeler
  3
DesignerAssemblies
 90
        0
280
     0
281
     0
  0
CLASS
  1
ACMTHREADLINESTANDARDISO
  2
AmdtThreadLineStdISO
  3
"Amdt_StdImp|Product Description: AutoCAD Mechanical 2004 DX|Company: Autodesk"
 90
        0
280
     0
281
     0
  0
CLASS
  1
CATALOGSTATE
  2
AcAmCatalogState
  3
DesignerAssemblies
 90
        0
280
     0
281
     0
  0
CLASS
  1
ACAMGRCOMPDEFSET
  2
AcAmGrCompDefSet
  3
DesignerAssemblies
 90
        0
280
     0
281
     0
  0
CLASS
  1
AMDTBROWSERDBTAB
  2
AmdtBrowserDbTab
  3
McadcomServices
 90
        0
280
     0
281
     0
  0
CLASS
  1
CBROWSERAPPOBJECT
  2
CBrowserAppObject
  3
McadcomServices
 90
        0
280
     0
281
     0
  0
CLASS
  1
DM_PLACEHOLDER
  2
AcDmSelsetPlaceholder
  3
AcMechDwgViewMgmt
 90
        0
280
     0
281
     0
  0
CLASS
  1
TABLESTYLE
  2
AcDbTableStyle
  3
ObjectDBX Classes
 90
     2047
280
     0
281
     0
  0
CLASS
  1
VAACXREFPANELOBJECT
  2
VaAcXREFPanelObject
  3
VAAC_ADDIN
 90
        0
280
     0
281
     0
  0
CLASS
  1
VAACIMAGEINVENTORY
  2
VaAcImageInventory
  3
VAAC_ADDIN
 90
        0
280
     0
281
     0
  0
CLASS
  1
AMDTNOTETEMPLATEDB
  2
AmdtNoteTemplateDB
  3
AMDT_STDIMP_MODULE_NAME
 90
        0
280
     0
281
     0
  0
CLASS
  1
ACMBOM
  2
AcmBom
  3
"AcmSymBB|Product Description: AutoCAD Mechanical 2004 DX|Company: Autodesk"
 90
    32768
280
     0
281
     0
  0
CLASS
  1
AMDTFORMULAUPDATEDISPATCHER
  2
AmdtFormulaUpdateDispatcher
  3
AcMeServices
 90
    32768
280
     0
281
     0
  0
CLASS
  1
ACMPARTLIST
  2
AcmPartList
  3
"AcmSymBB|Product Description: AutoCAD Mechanical 2004 DX|Company: Autodesk"
 90
    33791
280
     0
281
     1
  0
CLASS
  1
ACAMGFILTERDAT
  2
AcAmgFilterDat
  3
"AcadM|Product Description: AutoCAD Mechanical 2000|Company: Autodesk"
 90
    32768
280
     0
281
     0
  0
CLASS
  1
SORTENTSTABLE
  2
AcDbSortentsTable
  3
ObjectDBX Classes
 90
        0
280
     0
281
     0
  0
CLASS
  1
ACMSTANDARDANSI
  2
AcmStandardANSI
  3
"Amdt_StdImp|Product Description: AutoCAD Mechanical 2004 DX|Company: Autodesk"
 90
    32768
280
     0
281
     0
  0
CLASS
  1
ACMSURFSTANDARDANSI
  2
AcmSurfTextStdANSI
  3
"Amdt_StdImp|Product Description: AutoCAD Mechanical 2004 DX|Company: Autodesk"
 90
    32768
280
     0
281
     0
  0
CLASS
  1
ACMFCFSTANDARDANSI
  2
AcmFCFStdANSI
  3
"Amdt_StdImp|Product Description: AutoCAD Mechanical 2004 DX|Company: Autodesk"
 90
    32768
280
     0
281
     0
  0
CLASS
  1
ACMWELDSTANDARDANSI
  2
AcmWeldingStdANSI
  3
"Amdt_StdImp|Product Description: AutoCAD Mechanical 2004 DX|Company: Autodesk"
 90
    32768
280
     0
281
     0
  0
CLASS
  1
ACMIDSTANDARDANSI
  2
AcmIdStdANSI
  3
"Amdt_StdImp|Product Description: AutoCAD Mechanical 2004 DX|Company: Autodesk"
 90
    32768
280
     0
281
     0
  0
CLASS
  1
ACMDATUMSTANDARDANSI
  2
AcmDatumStdANSI
  3
"Amdt_StdImp|Product Description: AutoCAD Mechanical 2004 DX|Company: Autodesk"
 90
    32768
280
     0
281
     0
  0
CLASS
  1
ACMBOMSTANDARDANSI
  2
AcmBOMStdANSI
  3
"Amdt_StdImp|Product Description: AutoCAD Mechanical 2004 DX|Company: Autodesk"
 90
    32768
280
     0
281
     0
  0
CLASS
  1
ACMDETAILSTANDARDANSI
  2
AmdtDetailSymStdANSI
  3
"Amdt_StdImp|Product Description: AutoCAD Mechanical 2004 DX|Company: Autodesk"
 90
    32768
280
     0
281
     0
  0
CLASS
  1
ACMSECTIONSTANDARDANSI
  2
AmdtSectionSymStdANSI
  3
"Amdt_StdImp|Product Description: AutoCAD Mechanical 2004 DX|Company: Autodesk"
 90
    32768
280
     0
281
     0
  0
CLASS
  1
ACMCENTERLINESTANDARDANSI
  2
AmdtCenterLineStdANSI
  3
"Amdt_StdImp|Product Description: AutoCAD Mechanical 2004 DX|Company: Autodesk"
 90
    32768
280
     0
281
     0
  0
CLASS
  1
ACMTHREADLINESTANDARDANSI
  2
AmdtThreadLineStdANSI
  3
"Amdt_StdImp|Product Description: AutoCAD Mechanical 2004 DX|Company: Autodesk"
 90
    32768
280
     0
281
     0
  0
CLASS
  1
ACMNOTESTANDARDANSI
  2
AmdtNoteStdANSI
  3
"Amdt_StdImp|Product Description: AutoCAD Mechanical 2004 DX|Company: Autodesk"
 90
    32768
280
     0
281
     0
  0
CLASS
  1
ACAMGHOLECHARTSTDANSI
  2
AcAmgHoleChartStdANSI
  3
ACMSYMBB_MODULE_NAME
 90
    32768
280
     0
281
     0
  0
CLASS
  1
ACMSTANDARDJIS
  2
AcmStandardJIS
  3
"Amdt_StdImp|Product Description: AutoCAD Mechanical 2004 DX|Company: Autodesk"
 90
    32768
280
     0
281
     0
  0
CLASS
  1
ACMSURFSTANDARDJIS
  2
AcmSurfTextStdJIS
  3
"Amdt_StdImp|Product Description: AutoCAD Mechanical 2004 DX|Company: Autodesk"
 90
    32768
280
     0
281
     0
  0
CLASS
  1
ACMFCFSTANDARDJIS
  2
AcmFCFStdJIS
  3
"Amdt_StdImp|Product Description: AutoCAD Mechanical 2004 DX|Company: Autodesk"
 90
    32768
280
     0
281
     0
  0
CLASS
  1
ACMWELDSTANDARDJIS
  2
AcmWeldingStdJIS
  3
"Amdt_StdImp|Product Description: AutoCAD Mechanical 2004 DX|Company: Autodesk"
 90
    32768
280
     0
281
     0
  0
CLASS
  1
ACMIDSTANDARDJIS
  2
AcmIdStdJIS
  3
"Amdt_StdImp|Product Description: AutoCAD Mechanical 2004 DX|Company: Autodesk"
 90
    32768
280
     0
281
     0
  0
CLASS
  1
ACMDATUMSTANDARDJIS
  2
AcmDatumStdJIS
  3
"Amdt_StdImp|Product Description: AutoCAD Mechanical 2004 DX|Company: Autodesk"
 90
    32768
280
     0
281
     0
  0
CLASS
  1
ACMBOMSTANDARDJIS
  2
AcmBOMStdJIS
  3
"Amdt_StdImp|Product Description: AutoCAD Mechanical 2004 DX|Company: Autodesk"
 90
    32768
280
     0
281
     0
  0
CLASS
  1
ACMDETAILSTANDARDJIS
  2
AmdtDetailSymStdJIS
  3
"Amdt_StdImp|Product Description: AutoCAD Mechanical 2004 DX|Company: Autodesk"
 90
    32768
280
     0
281
     0
  0
CLASS
  1
ACMSECTIONSTANDARDJIS
  2
AmdtSectionSymStdJIS
  3
"Amdt_StdImp|Product Description: AutoCAD Mechanical 2004 DX|Company: Autodesk"
 90
    32768
280
     0
281
     0
  0
CLASS
  1
ACMCENTERLINESTANDARDJIS
  2
AmdtCenterLineStdJIS
  3
"Amdt_StdImp|Product Description: AutoCAD Mechanical 2004 DX|Company: Autodesk"
 90
    32768
280
     0
281
     0
  0
CLASS
  1
ACMTHREADLINESTANDARDJIS
  2
AmdtThreadLineStdJIS
  3
"Amdt_StdImp|Product Description: AutoCAD Mechanical 2004 DX|Company: Autodesk"
 90
    32768
280
     0
281
     0
  0
CLASS
  1
ACMNOTESTANDARDJIS
  2
AmdtNoteStdJIS
  3
"Amdt_StdImp|Product Description: AutoCAD Mechanical 2004 DX|Company: Autodesk"
 90
    32768
280
     0
281
     0
  0
CLASS
  1
ACAMGHOLECHARTSTDJIS
  2
AcAmgHoleChartStdJIS
  3
ACMSYMBB_MODULE_NAME
 90
    32768
280
     0
281
     0
  0
CLASS
  1
DIMASSOC
  2
AcDbDimAssoc
  3
"AcDbDimAssoc|Product Desc:     AcDim ARX App For Dimension|Company:          Autodesk, Inc.|WEB Address:      www.autodesk.com"
 90
        0
280
     0
281
     0
  0
CLASS
  1
ACDBLINERES
  2
AcDbLineRes
  3
AcGrefServices
 90
    32768
280
     0
281
     0
  0
CLASS
  1
AMDTNOTE
  2
AmdtNote
  3
"AcmSymBB|Product Description: AutoCAD Mechanical 2004 DX|Company: Autodesk"
 90
    33791
280
     0
281
     1
  0
CLASS
  1
AMDTEDGESTANDARDISO13715
  2
AmdtEdgeStdISO13715
  3
"Amdt_StdImp|Product Description: AutoCAD Mechanical 2004 DX|Company: Autodesk"
 90
        0
280
     0
281
     0
  0
CLASS
  1
ACRFATTGENMGR
  2
AcRfAttGeneralMgr
  3
AcAttribServices
 90
        0
280
     0
281
     0
  0
ENDSEC
  0
SECTION
  2
TABLES
  0
TABLE
  2
VPORT
  5
8
330
0
100
AcDbSymbolTable
 70
     3
  0
VPORT
  5
E3D
330
8
100
AcDbSymbolTableRecord
100
AcDbViewportTableRecord
  2
*Active
 70
     0
 10
0.0
 20
0.0
 11
1.0
 21
1.0
 12
2139.016568721888
 22
1525.786442676003
 13
0.0
 23
0.0
 14
25.0
 24
25.0
 15
100.0
 25
100.0
 16
0.0
 26
0.0
 36
1.0
 17
0.0
 27
0.0
 37
0.0
 40
2772.715088402212
 41
1.583547557840617
 42
50.0
 43
0.0
 44
0.0
 50
0.0
 51
0.0
 71
     0
 72
   100
 73
     1
 74
     3
 75
     0
 76
     0
 77
     0
 78
     0
281
     0
 65
     1
110
0.0
120
0.0
130
0.0
111
1.0
121
0.0
131
0.0
112
0.0
122
1.0
132
0.0
 79
     0
146
0.0
  0
ENDTAB
  0
TABLE
  2
LTYPE
  5
5
330
0
100
AcDbSymbolTable
 70
    24
  0
LTYPE
  5
14
330
5
100
AcDbSymbolTableRecord
100
AcDbLinetypeTableRecord
  2
ByBlock
 70
     0
  3

 72
    65
 73
     0
 40
0.0
  0
LTYPE
  5
15
330
5
100
AcDbSymbolTableRecord
100
AcDbLinetypeTableRecord
  2
ByLayer
 70
     0
  3

 72
    65
 73
     0
 40
0.0
  0
LTYPE
  5
16
330
5
100
AcDbSymbolTableRecord
100
AcDbLinetypeTableRecord
  2
Continuous
 70
     0
  3
Solid line
 72
    65
 73
     0
 40
0.0
  0
LTYPE
  5
64
330
5
100
AcDbSymbolTableRecord
100
AcDbLinetypeTableRecord
  2
AM_ISO02W050
 70
     0
  3
__ __ __ __ __ __ __ __ __ __ __ __ __ __ __
 72
    65
 73
     2
 40
7.5
 49
6.0
 74
     0
 49
-1.5
 74
     0
  0
LTYPE
  5
65
330
5
100
AcDbSymbolTableRecord
100
AcDbLinetypeTableRecord
  2
AM_ISO08W050
 70
     0
  3
____ . ____ . ____ . ____ . ____ . ____ . ____
 72
    65
 73
     4
 40
18.0
 49
12.0
 74
     0
 49
-1.5
 74
     0
 49
3.0
 74
     0
 49
-1.5
 74
     0
  0
LTYPE
  5
66
330
5
100
AcDbSymbolTableRecord
100
AcDbLinetypeTableRecord
  2
AM_ISO09W050
 70
     0
  3
_____ . . _____ . . _____ . . ____ .. ____
 72
    65
 73
     6
 40
22.5
 49
12.0
 74
     0
 49
-1.5
 74
     0
 49
3.0
 74
     0
 49
-1.5
 74
     0
 49
3.0
 74
     0
 49
-1.5
 74
     0
  0
LTYPE
  5
67
330
5
100
AcDbSymbolTableRecord
100
AcDbLinetypeTableRecord
  2
Amconstr
 70
     0
  3
_______________________
 72
    65
 73
     2
 40
9999.0
 49
9999.0
 74
     0
 49
0.0
 74
     0
  0
LTYPE
  5
68
330
5
100
AcDbSymbolTableRecord
100
AcDbLinetypeTableRecord
  2
AM_ISO08W050x2
 70
     0
  3
__ . __ . __ . __ . __ . __
 72
    65
 73
     4
 40
9.0
 49
6.0
 74
     0
 49
-0.75
 74
     0
 49
1.5
 74
     0
 49
-0.75
 74
     0
  0
LTYPE
  5
69
330
5
100
AcDbSymbolTableRecord
100
AcDbLinetypeTableRecord
  2
AM_ISO02W050x2
 70
     0
  3
 _ _ _ _ _ _ _ _ _ _ _ _
 72
    65
 73
     2
 40
3.75
 49
3.0
 74
     0
 49
-0.75
 74
     0
  0
LTYPE
  5
6C
330
5
100
AcDbSymbolTableRecord
100
AcDbLinetypeTableRecord
  2
Amzigzag
 70
     0
  3
/\/-/\/-/\/-/\/-/\/-/\/
 72
    65
 73
     2
 40
11.0001
 49
0.0001
 74
     4
 75
   135
340
6B
 46
0.04
 50
0.0
 44
0.0
 45
0.0
 49
-11.0
 74
     0
  0
LTYPE
  5
7A
330
5
100
AcDbSymbolTableRecord
100
AcDbLinetypeTableRecord
  2
ACISOWELD
 70
     0
  3
_ _ _ _ _
 72
    65
 73
     2
 40
2.0
 49
2.0
 74
     0
 49
-1.0
 74
     0
  0
LTYPE
  5
7B
330
5
100
AcDbSymbolTableRecord
100
AcDbLinetypeTableRecord
  2
ACISOTGB
 70
     0
  3
__ . . __ . .
 72
    65
 73
     6
 40
9.0
 49
4.0
 74
     0
 49
-1.0
 74
     0
 49
1.0
 74
     0
 49
-1.0
 74
     0
 49
1.0
 74
     0
 49
-1.0
 74
     0
  0
LTYPE
  5
7C
330
5
100
AcDbSymbolTableRecord
100
AcDbLinetypeTableRecord
  2
ACISOTGL
 70
     0
  3
_ _ _ _ _
 72
    65
 73
     2
 40
3.0
 49
2.0
 74
     0
 49
-1.0
 74
     0
  0
LTYPE
  5
7E
330
5
100
AcDbSymbolTableRecord
100
AcDbLinetypeTableRecord
  2
CENTER
 70
     0
  3
__ . __
 72
    65
 73
     4
 40
7.0
 49
4.0
 74
     0
 49
-1.0
 74
     0
 49
1.0
 74
     0
 49
-1.0
 74
     0
  0
LTYPE
  5
D8
330
5
100
AcDbSymbolTableRecord
100
AcDbLinetypeTableRecord
  2
HIDDEN
 70
     0
  3
Hidden __ __ __ __ __ __ __ __ __ __ __ __ __ _
 72
    65
 73
     2
 40
9.524999999999998
 49
6.349999999999999
 74
     0
 49
-3.174999999999999
 74
     0
  0
LTYPE
  5
D9
330
5
100
AcDbSymbolTableRecord
100
AcDbLinetypeTableRecord
  2
PHANTOM2
 70
     0
  3
Phantom (.5x) ___ _ _ ___ _ _ ___ _ _ ___ _ _
 72
    65
 73
     6
 40
31.75
 49
15.875
 74
     0
 49
-3.174999999999999
 74
     0
 49
3.174999999999999
 74
     0
 49
-3.174999999999999
 74
     0
 49
3.174999999999999
 74
     0
 49
-3.174999999999999
 74
     0
  0
LTYPE
  5
2AE
330
5
100
AcDbSymbolTableRecord
100
AcDbLinetypeTableRecord
  2
CENTER2
 70
     0
  3
Center (.5x) ___ _ ___ _ ___ _ ___ _ ___ _ ___
 72
    65
 73
     4
 40
6.0
 49
3.75
 74
     0
 49
-0.75
 74
     0
 49
0.75
 74
     0
 49
-0.75
 74
     0
  0
LTYPE
  5
2AF
330
5
100
AcDbSymbolTableRecord
100
AcDbLinetypeTableRecord
  2
HIDDEN2
 70
     0
  3
Hidden (.5x) _ _ _ _ _ _ _ _ _ _ _ _ _ _ _ _ _
 72
    65
 73
     2
 40
2.25
 49
1.5
 74
     0
 49
-0.75
 74
     0
  0
LTYPE
  5
2B0
330
5
100
AcDbSymbolTableRecord
100
AcDbLinetypeTableRecord
  2
Amzigzag2
 70
     0
  3
/\/-/\/-/\/-/\/-/\/-/\/
 72
    65
 73
     2
 40
0.4401
 49
0.0001
 74
     4
 75
   135
340
6B
 46
0.0016
 50
0.0
 44
0.0
 45
0.0
 49
-0.4400000000000001
 74
     0
  0
LTYPE
  5
2B1
330
5
100
AcDbSymbolTableRecord
100
AcDbLinetypeTableRecord
  2
ACANSTGB
 70
     0
  3
__ . . __ . .
 72
    65
 73
     6
 40
0.35433070866
 49
0.15748031496
 74
     0
 49
-0.03937007874
 74
     0
 49
0.03937007874
 74
     0
 49
-0.03937007874
 74
     0
 49
0.03937007874
 74
     0
 49
-0.03937007874
 74
     0
  0
LTYPE
  5
2B2
330
5
100
AcDbSymbolTableRecord
100
AcDbLinetypeTableRecord
  2
ACANSTGL
 70
     0
  3
_ _ _ _ _
 72
    65
 73
     2
 40
0.11811023622
 49
0.07874015748
 74
     0
 49
-0.03937007874
 74
     0
  0
LTYPE
  5
3EA
330
5
100
AcDbSymbolTableRecord
100
AcDbLinetypeTableRecord
  2
ACJISTGB
 70
     0
  3
__ . . __ . .
 72
    65
 73
     6
 40
9.0
 49
4.0
 74
     0
 49
-1.0
 74
     0
 49
1.0
 74
     0
 49
-1.0
 74
     0
 49
1.0
 74
     0
 49
-1.0
 74
     0
  0
LTYPE
  5
3EB
330
5
100
AcDbSymbolTableRecord
100
AcDbLinetypeTableRecord
  2
ACJISTGL
 70
     0
  3
_ _ _ _ _
 72
    65
 73
     2
 40
3.0
 49
2.0
 74
     0
 49
-1.0
 74
     0
  0
LTYPE
  5
A51
330
5
100
AcDbSymbolTableRecord
100
AcDbLinetypeTableRecord
  2
PHANTOM
 70
     0
  3
Phantom ______  __  __  ______  __  __  ______
 72
    65
 73
     6
 40
63.50000000000001
 49
31.75
 74
     0
 49
-6.349999999999999
 74
     0
 49
6.349999999999999
 74
     0
 49
-6.349999999999999
 74
     0
 49
6.349999999999999
 74
     0
 49
-6.349999999999999
 74
     0
  0
LTYPE
  5
A52
330
5
100
AcDbSymbolTableRecord
100
AcDbLinetypeTableRecord
  2
DASHED
 70
     0
  3
Dashed __ __ __ __ __ __ __ __ __ __ __ __ __ _
 72
    65
 73
     2
 40
19.05
 49
12.7
 74
     0
 49
-6.349999999999999
 74
     0
  0
LTYPE
  5
A53
330
5
100
AcDbSymbolTableRecord
100
AcDbLinetypeTableRecord
  2
ZIGZAG
 70
     0
  3
Zig zag /\/\/\/\/\/\/\/\/\/\/\/\/\/\/\/\/\/\/\/\/\/\/\/
 72
    65
 73
     4
 40
20.32254
 49
0.00254
 74
     0
 49
-5.08
 74
     4
 75
   131
340
6B
 46
5.08
 50
0.0
 44
-5.08
 45
0.0
 49
-10.16
 74
     4
 75
   131
340
6B
 46
5.08
 50
180.0
 44
5.08
 45
0.0
 49
-5.08
 74
     0
  0
ENDTAB
  0
TABLE
  2
LAYER
  5
2
102
{ACAD_XDICTIONARY
360
21F
102
}
330
0
100
AcDbSymbolTable
 70
    23
  0
LAYER
  5
10
330
2
100
AcDbSymbolTableRecord
100
AcDbLayerTableRecord
  2
0
 70
     0
 62
     7
  6
Continuous
370
    -3
390
F
  0
LAYER
  5
1B0
330
2
100
AcDbSymbolTableRecord
100
AcDbLayerTableRecord
  2
AM_5
 70
     0
 62
     3
  6
Continuous
370
    25
390
F
  0
LAYER
  5
21E
330
2
100
AcDbSymbolTableRecord
100
AcDbLayerTableRecord
  2
AM_0
 70
     0
 62
     7
  6
Continuous
370
    30
390
F
  0
LAYER
  5
2B3
330
2
100
AcDbSymbolTableRecord
100
AcDbLayerTableRecord
  2
図枠
 70
     0
 62
     7
  6
Continuous
370
    50
390
F
  0
LAYER
  5
2B4
330
2
100
AcDbSymbolTableRecord
100
AcDbLayerTableRecord
  2
LAYER002
 70
     4
 62
     7
  6
Continuous
370
    -3
390
F
  0
LAYER
  5
2B5
330
2
100
AcDbSymbolTableRecord
100
AcDbLayerTableRecord
  2
AM_CL
 70
     4
 62
     1
  6
Amconstr
370
    25
390
F
  0
LAYER
  5
2B6
330
2
100
AcDbSymbolTableRecord
100
AcDbLayerTableRecord
  2
AM_6
 70
     4
 62
     2
  6
Continuous
370
    35
390
F
  0
LAYER
  5
2B7
330
2
100
AcDbSymbolTableRecord
100
AcDbLayerTableRecord
  2
細線
 70
     0
 62
    14
  6
Continuous
370
    25
390
F
  0
LAYER
  5
2B8
330
2
100
AcDbSymbolTableRecord
100
AcDbLayerTableRecord
  2
実線
 70
     0
 62
     7
  6
Continuous
370
    35
390
F
  0
LAYER
  5
2B9
330
2
100
AcDbSymbolTableRecord
100
AcDbLayerTableRecord
  2
破線
 70
     0
 62
     6
  6
HIDDEN
370
    25
390
F
  0
LAYER
  5
2BA
330
2
100
AcDbSymbolTableRecord
100
AcDbLayerTableRecord
  2
中心線
 70
     0
 62
     4
  6
CENTER
370
    25
390
F
  0
LAYER
  5
2BB
330
2
100
AcDbSymbolTableRecord
100
AcDbLayerTableRecord
  2
AM_4
 70
     0
 62
     3
  6
Continuous
370
    25
390
F
  0
LAYER
  5
2BC
330
2
100
AcDbSymbolTableRecord
100
AcDbLayerTableRecord
  2
ハッチング
 70
     0
 62
     1
  6
Continuous
370
    25
390
F
  0
LAYER
  5
2BD
330
2
100
AcDbSymbolTableRecord
100
AcDbLayerTableRecord
  2
2点鎖線
 70
     0
 62
     3
  6
AM_ISO09W050
370
    25
390
F
  0
LAYER
  5
2BE
330
2
100
AcDbSymbolTableRecord
100
AcDbLayerTableRecord
  2
AM_2
 70
     4
 62
     5
  6
Continuous
370
    50
390
F
  0
LAYER
  5
3EC
330
2
100
AcDbSymbolTableRecord
100
AcDbLayerTableRecord
  2
AM_BOR
 70
     0
 62
     7
  6
Continuous
370
    50
390
F
  0
LAYER
  5
3ED
330
2
100
AcDbSymbolTableRecord
100
AcDbLayerTableRecord
  2
LAYER001
 70
     0
 62
     7
  6
Continuous
370
    -3
390
F
  0
LAYER
  5
3EE
330
2
100
AcDbSymbolTableRecord
100
AcDbLayerTableRecord
  2
LAYER010
 70
     0
 62
     7
  6
Continuous
370
    -3
390
F
  0
LAYER
  5
3EF
330
2
100
AcDbSymbolTableRecord
100
AcDbLayerTableRecord
  2
Defpoints
 70
     0
 62
     7
  6
Continuous
290
     0
370
    -3
390
F
  0
LAYER
  5
6EA
330
2
100
AcDbSymbolTableRecord
100
AcDbLayerTableRecord
  2
一点鎖線
 70
     0
 62
     2
  6
CENTER
370
    -3
390
F
  0
LAYER
  5
6EB
330
2
100
AcDbSymbolTableRecord
100
AcDbLayerTableRecord
  2
寸法
 70
     0
 62
     4
  6
Continuous
370
    -3
390
F
  0
LAYER
  5
6EC
330
2
100
AcDbSymbolTableRecord
100
AcDbLayerTableRecord
  2
注釈
 70
     0
 62
     4
  6
Continuous
370
    -3
390
F
  0
LAYER
  5
A54
330
2
100
AcDbSymbolTableRecord
100
AcDbLayerTableRecord
  2
SA
 70
     0
 62
     7
  6
Continuous
370
    -3
390
F
  0
ENDTAB
  0
TABLE
  2
STYLE
  5
3
330
0
100
AcDbSymbolTable
 70
    14
  0
STYLE
  5
11
330
3
100
AcDbSymbolTableRecord
100
AcDbTextStyleTableRecord
  2
STANDARD
 70
     0
 40
0.0
 41
1.0
 50
0.0
 71
     0
 42
1.0
  3
ISOCP.SHX
  4
EXTFONT.SHX
  0
STYLE
  5
6B
330
3
100
AcDbSymbolTableRecord
100
AcDbTextStyleTableRecord
  2

 70
     1
 40
0.0
 41
1.0
 50
0.0
 71
     0
 42
2.5
  3
ltypeshp.shx
  4

  0
STYLE
  5
6D
330
3
100
AcDbSymbolTableRecord
100
AcDbTextStyleTableRecord
  2
ACISOTS
 70
     0
 40
1.0
 41
1.0
 50
0.0
 71
     0
 42
1.0
  3
isocp.shx
  4
extfont.shx
  0
STYLE
  5
79
330
3
100
AcDbSymbolTableRecord
100
AcDbTextStyleTableRecord
  2
ACISOGDT
 70
     0
 40
0.0
 41
1.0
 50
0.0
 71
     0
 42
2.5
  3
amgdt.shx
  4
extfont.shx
  0
STYLE
  5
1F8
330
3
100
AcDbSymbolTableRecord
100
AcDbTextStyleTableRecord
  2
USER1
 70
     0
 40
0.0
 41
1.0
 50
0.0
 71
     0
 42
1.0
  3
TXT.SHX
  4

  0
STYLE
  5
1F9
330
3
100
AcDbSymbolTableRecord
100
AcDbTextStyleTableRecord
  2
USER2
 70
     0
 40
0.0
 41
1.0
 50
0.0
 71
     0
 42
1.0
  3
SIMPLEX.SHX
  4

  0
STYLE
  5
1FA
330
3
100
AcDbSymbolTableRecord
100
AcDbTextStyleTableRecord
  2
USER3
 70
     0
 40
0.0
 41
1.0
 50
0.0
 71
     0
 42
1.0
  3
ITALIC.SHX
  4

  0
STYLE
  5
2BF
330
3
100
AcDbSymbolTableRecord
100
AcDbTextStyleTableRecord
  2
ACANSTS
 70
     0
 40
1.0
 41
1.0
 50
0.0
 71
     0
 42
3.2
  3
romans.shx
  4
extfont.shx
  0
STYLE
  5
2C0
330
3
100
AcDbSymbolTableRecord
100
AcDbTextStyleTableRecord
  2
ACANSGDT
 70
     0
 40
0.0
 41
1.0
 50
0.0
 71
     0
 42
3.2
  3
amgdtans.shx
  4

  0
STYLE
  5
3F0
330
3
100
AcDbSymbolTableRecord
100
AcDbTextStyleTableRecord
  2
ACJISTS
 70
     0
 40
1.0
 41
1.0
 50
0.0
 71
     0
 42
2.5
  3
isocp.shx
  4
extfont.shx
  0
STYLE
  5
3F1
330
3
100
AcDbSymbolTableRecord
100
AcDbTextStyleTableRecord
  2
ACJISGDT
 70
     0
 40
0.0
 41
1.0
 50
0.0
 71
     0
 42
2.5
  3
amgdt.shx
  4
extfont.shx
  0
STYLE
  5
3F2
330
3
100
AcDbSymbolTableRecord
100
AcDbTextStyleTableRecord
  2
スタイル1
 70
     0
 40
0.0
 41
1.0
 50
0.0
 71
     0
 42
3.5
  3
MS PGothic.ttf
  4

1001
ACAD
1000
MS PGothic
1071
    32818
  0
STYLE
  5
A55
330
3
100
AcDbSymbolTableRecord
100
AcDbTextStyleTableRecord
  2
MX_NOTE_STANDARD
 70
     0
 40
0.0
 41
1.0
 50
0.0
 71
     0
 42
3.200000047683715
  3
txt.shx
  4
extfont.shx
  0
ENDTAB
  0
TABLE
  2
VIEW
  5
6
330
0
100
AcDbSymbolTable
 70
     6
  0
VIEW
  5
513
330
6
100
AcDbSymbolTableRecord
100
AcDbViewTableRecord
  2
AM_VIEW1
 70
     0
 40
1335.0
 10
1080.095394736842
 20
2017.5
 41
2120.190789473685
 11
0.0
 21
0.0
 31
1.0
 12
0.0
 22
0.0
 32
0.0
 42
50.0
 43
0.0
 44
0.0
 50
0.0
 71
     0
281
     0
 72
     0
  0
VIEW
  5
514
330
6
100
AcDbSymbolTableRecord
100
AcDbViewTableRecord
  2
AM_VIEW2
 70
     0
 40
1335.0
 10
2809.904605263159
 20
2017.5
 41
2120.190789473685
 11
0.0
 21
0.0
 31
1.0
 12
0.0
 22
0.0
 32
0.0
 42
50.0
 43
0.0
 44
0.0
 50
0.0
 71
     0
281
     0
 72
     0
  0
VIEW
  5
515
330
6
100
AcDbSymbolTableRecord
100
AcDbViewTableRecord
  2
AM_VIEW3
 70
     0
 40
1335.0
 10
1080.095394736842
 20
682.5000000000001
 41
2120.190789473685
 11
0.0
 21
0.0
 31
1.0
 12
0.0
 22
0.0
 32
0.0
 42
50.0
 43
0.0
 44
0.0
 50
0.0
 71
     0
281
     0
 72
     0
  0
VIEW
  5
516
330
6
100
AcDbSymbolTableRecord
100
AcDbViewTableRecord
  2
AM_VIEW4
 70
     0
 40
1335.0
 10
2809.904605263159
 20
682.5000000000001
 41
2120.190789473685
 11
0.0
 21
0.0
 31
1.0
 12
0.0
 22
0.0
 32
0.0
 42
50.0
 43
0.0
 44
0.0
 50
0.0
 71
     0
281
     0
 72
     0
  0
VIEW
  5
517
330
6
100
AcDbSymbolTableRecord
100
AcDbViewTableRecord
  2
AM_VIEW5
 70
     0
 40
1335.0
 10
1945.0
 20
1350.0
 41
2120.190789473685
 11
0.0
 21
0.0
 31
1.0
 12
0.0
 22
0.0
 32
0.0
 42
50.0
 43
0.0
 44
0.0
 50
0.0
 71
     0
281
     0
 72
     0
  0
VIEW
  5
518
330
6
100
AcDbSymbolTableRecord
100
AcDbViewTableRecord
  2
AM_VIEW6
 70
     0
 40
2669.9733
 10
1945.0
 20
1350.0
 41
4240.339175131579
 11
0.0
 21
0.0
 31
1.0
 12
0.0
 22
0.0
 32
0.0
 42
50.0
 43
0.0
 44
0.0
 50
0.0
 71
     0
281
     0
 72
     0
  0
ENDTAB
  0
TABLE
  2
UCS
  5
7
330
0
100
AcDbSymbolTable
 70
     0
  0
ENDTAB
  0
TABLE
  2
APPID
  5
9
330
0
100
AcDbSymbolTable
 70
    24
  0
APPID
  5
12
330
9
100
AcDbSymbolTableRecord
100
AcDbRegAppTableRecord
  2
ACAD
 70
     0
  0
APPID
  5
46
330
9
100
AcDbSymbolTableRecord
100
AcDbRegAppTableRecord
  2
MCAD_NO_VIS
 70
     0
  0
APPID
  5
47
330
9
100
AcDbSymbolTableRecord
100
AcDbRegAppTableRecord
  2
ACAD_TEMP_GRAPHIC
 70
     0
  0
APPID
  5
58
330
9
100
AcDbSymbolTableRecord
100
AcDbRegAppTableRecord
  2
ACATTRIBSERVICES
 70
     0
  0
APPID
  5
EE
330
9
100
AcDbSymbolTableRecord
100
AcDbRegAppTableRecord
  2
AD_DRAW
 70
     0
  0
APPID
  5
10C
330
9
100
AcDbSymbolTableRecord
100
AcDbRegAppTableRecord
  2
DESIGNERASSEMBLIES
 70
     0
  0
APPID
  5
111
330
9
100
AcDbSymbolTableRecord
100
AcDbRegAppTableRecord
  2
ACADM_DIM_EDIT
 70
     0
  0
APPID
  5
112
330
9
100
AcDbSymbolTableRecord
100
AcDbRegAppTableRecord
  2
AMDT_DM_ADJ
 70
     0
  0
APPID
  5
2C8
330
9
100
AcDbSymbolTableRecord
100
AcDbRegAppTableRecord
  2
GENIUS_GENREC_14
 70
     0
  0
APPID
  5
2C9
330
9
100
AcDbSymbolTableRecord
100
AcDbRegAppTableRecord
  2
GENIUS_GENOBJ-N-REC_13
 70
     0
  0
APPID
  5
2CA
330
9
100
AcDbSymbolTableRecord
100
AcDbRegAppTableRecord
  2
GENIUS_GENODEF_13
 70
     0
  0
APPID
  5
2CB
330
9
100
AcDbSymbolTableRecord
100
AcDbRegAppTableRecord
  2
DCO15
 70
     0
  0
APPID
  5
2CC
330
9
100
AcDbSymbolTableRecord
100
AcDbRegAppTableRecord
  2
ACAD_PSEXT
 70
     0
  0
APPID
  5
2CD
330
9
100
AcDbSymbolTableRecord
100
AcDbRegAppTableRecord
  2
GENIUS_GENOBJ-N-HTC_13
 70
     0
  0
APPID
  5
2CE
330
9
100
AcDbSymbolTableRecord
100
AcDbRegAppTableRecord
  2
GENIUS_GENHATCH_13
 70
     0
  0
APPID
  5
50E
330
9
100
AcDbSymbolTableRecord
100
AcDbRegAppTableRecord
  2
GENIUS_GENOBJ-N-TIT_13
 70
     0
  0
APPID
  5
50F
330
9
100
AcDbSymbolTableRecord
100
AcDbRegAppTableRecord
  2
GENIUS_GENOLIS_13
 70
     0
  0
APPID
  5
510
330
9
100
AcDbSymbolTableRecord
100
AcDbRegAppTableRecord
  2
GENIUS_GENOENT_13
 70
     0
  0
APPID
  5
511
330
9
100
AcDbSymbolTableRecord
100
AcDbRegAppTableRecord
  2
GENIUS_GENTITLE_13
 70
     0
  0
APPID
  5
512
330
9
100
AcDbSymbolTableRecord
100
AcDbRegAppTableRecord
  2
GENIUS_GENOREF_13
 70
     0
  0
APPID
  5
519
330
9
100
AcDbSymbolTableRecord
100
AcDbRegAppTableRecord
  2
GENIUS_GENSCREG_15
 70
     0
  0
APPID
  5
51A
330
9
100
AcDbSymbolTableRecord
100
AcDbRegAppTableRecord
  2
GENIUS_GENOBJ-N-SDF_13
 70
     0
  0
APPID
  5
938
330
9
100
AcDbSymbolTableRecord
100
AcDbRegAppTableRecord
  2
GENIUS_GENDTOL_13
 70
     0
  0
APPID
  5
DBE
330
9
100
AcDbSymbolTableRecord
100
AcDbRegAppTableRecord
  2
GENIUS_AMGTXT_16
 70
     0
  0
ENDTAB
  0
TABLE
  2
DIMSTYLE
  5
A
330
0
100
AcDbSymbolTable
 70
    27
100
AcDbDimStyleTable
 71
     1
340
81
  0
DIMSTYLE
105
27
330
A
100
AcDbSymbolTableRecord
100
AcDbDimStyleTableRecord
  2
ISO-25
 70
     0
 41
2.5
 42
0.625
 43
3.75
 44
1.25
 73
     0
 74
     0
 77
     1
 78
     8
140
2.5
141
2.5
143
0.03937007874016
147
0.625
171
     3
172
     1
271
     2
272
     2
274
     3
278
    44
283
     0
284
     8
340
11
  0
DIMSTYLE
105
81
330
A
100
AcDbSymbolTableRecord
100
AcDbDimStyleTableRecord
  2
AM_ISO
 70
     0
  4
"
 41
2.5
 42
1.0
 43
10.0
 44
1.0
 47
0.1
 48
0.1
 73
     0
 74
     0
 77
     1
 78
     8
 79
     2
140
3.5
141
0.0
143
0.0393701
146
0.71
147
1.5
172
     1
176
   256
177
   256
178
     2
271
     2
272
     3
274
     4
283
     0
284
     8
340
11
371
    -1
372
    -1
  0
DIMSTYLE
105
82
330
A
100
AcDbSymbolTableRecord
100
AcDbDimStyleTableRecord
  2
AM_ISO$3
 70
     0
  4
"
 41
2.5
 42
1.0
 43
10.0
 44
1.0
 47
0.1
 48
0.1
 73
     0
 77
     1
 78
     8
 79
     2
140
3.5
141
0.0
143
0.0393701
146
0.71
147
1.5
176
   256
177
   256
178
     2
271
     2
272
     3
274
     4
283
     0
284
     8
288
     1
289
     0
340
11
371
    -1
372
    -1
  0
DIMSTYLE
105
83
330
A
100
AcDbSymbolTableRecord
100
AcDbDimStyleTableRecord
  2
AM_ISO$4
 70
     0
  4
"
 41
2.5
 42
1.0
 43
10.0
 44
1.0
 47
0.1
 48
0.1
 73
     0
 77
     1
 78
     8
 79
     2
140
3.5
141
0.0
143
0.0393701
146
0.71
147
1.5
176
   256
177
   256
178
     2
271
     2
272
     3
274
     4
283
     0
284
     8
288
     1
289
     0
340
11
371
    -1
372
    -1
  0
DIMSTYLE
105
84
330
A
100
AcDbSymbolTableRecord
100
AcDbDimStyleTableRecord
  2
AM_ISO$6
 70
     0
  4
"
 41
2.5
 42
1.0
 43
10.0
 44
1.0
 47
0.1
 48
0.1
 73
     0
 74
     0
 78
     8
 79
     2
140
3.5
141
0.0
143
0.0393701
146
0.71
147
1.5
172
     1
176
   256
177
   256
178
     2
271
     2
272
     3
274
     4
283
     0
284
     8
340
11
371
    -1
372
    -1
  0
DIMSTYLE
105
85
330
A
100
AcDbSymbolTableRecord
100
AcDbDimStyleTableRecord
  2
AM_ISO$7
 70
     0
  4
"
 41
2.5
 42
1.0
 43
10.0
 44
1.0
 47
0.1
 48
0.1
 73
     0
 74
     0
 77
     1
 78
     8
 79
     2
140
5.0
141
0.0
143
0.0393701
146
0.71
147
1.5
172
     1
176
   256
177
   256
178
     2
271
     2
272
     3
274
     4
283
     0
284
     8
340
11
371
    -1
372
    -1
  0
DIMSTYLE
105
86
330
A
100
AcDbSymbolTableRecord
100
AcDbDimStyleTableRecord
  2
AM_ISO$SF
 70
     0
  4
"
 41
2.5
 42
1.0
 43
10.0
 44
1.0
 47
0.1
 48
0.1
 73
     0
 74
     0
 75
     1
 76
     1
 77
     1
 78
     8
 79
     2
140
3.5
141
0.0
143
0.0393701
146
0.71
147
1.5
172
     1
176
   256
177
   256
178
     2
271
     2
272
     3
274
     4
283
     0
284
     8
340
11
371
    -1
372
    -1
  0
DIMSTYLE
105
8B
330
A
100
AcDbSymbolTableRecord
100
AcDbDimStyleTableRecord
  2
AM_ISO$SH
 70
     0
  4
"
 41
2.5
 42
1.0
 43
10.0
 44
1.0
 47
0.1
 48
0.1
 73
     0
 74
     0
 75
     1
 76
     1
 77
     1
 78
     8
 79
     2
140
3.5
141
0.0
143
0.0393701
144
2.0
146
0.71
147
1.5
172
     1
173
     1
176
   256
177
   256
178
     2
271
     2
272
     3
274
     4
283
     0
284
     8
340
11
343
87
371
    -1
372
    -1
  0
DIMSTYLE
105
2C1
330
A
100
AcDbSymbolTableRecord
100
AcDbDimStyleTableRecord
  2
STANDARD
 70
     0
 41
1.0
 42
2.54
 44
2.54
 73
     0
 74
     0
 77
     1
140
3.200000047683715
145
1.0
147
1.600000023841857
173
     1
271
     2
275
     1
340
11
  0
DIMSTYLE
105
2C2
330
A
100
AcDbSymbolTableRecord
100
AcDbDimStyleTableRecord
  2
AM_ANSI
 70
     0
  4
mm
 41
0.1
 42
0.05
 43
0.5
 44
0.1
 47
0.1
 48
0.1
 78
     7
 79
     2
140
0.12
141
0.0
146
0.71
147
0.06
176
   256
177
   256
178
     2
274
     4
284
     7
340
11
371
    -1
372
    -1
  0
DIMSTYLE
105
2C3
330
A
100
AcDbSymbolTableRecord
100
AcDbDimStyleTableRecord
  2
AM_ANSI$3
 70
     0
  4
mm
 41
0.1
 42
0.05
 43
0.5
 44
0.1
 47
0.1
 48
0.1
 78
     7
 79
     2
140
0.12
141
0.0
146
0.71
147
0.06
176
   256
177
   256
178
     2
274
     4
284
     7
288
     1
289
     0
340
11
371
    -1
372
    -1
  0
DIMSTYLE
105
2C4
330
A
100
AcDbSymbolTableRecord
100
AcDbDimStyleTableRecord
  2
AM_ANSI$4
 70
     0
  4
mm
 41
0.1
 42
0.05
 43
0.5
 44
0.1
 47
0.1
 48
0.1
 78
     7
 79
     2
140
0.12
141
0.0
146
0.71
147
0.06
176
   256
177
   256
178
     2
274
     4
284
     7
288
     1
289
     0
340
11
371
    -1
372
    -1
  0
DIMSTYLE
105
2C5
330
A
100
AcDbSymbolTableRecord
100
AcDbDimStyleTableRecord
  2
AM_ANSI$7
 70
     0
  4
mm
 41
0.1
 42
0.05
 43
0.5
 44
0.1
 47
0.1
 48
0.1
 78
     7
 79
     2
140
0.24
141
0.0
146
0.71
147
0.06
176
   256
177
   256
178
     2
274
     4
284
     7
340
11
371
    -1
372
    -1
  0
DIMSTYLE
105
2C6
330
A
100
AcDbSymbolTableRecord
100
AcDbDimStyleTableRecord
  2
AM_ANSI$SF
 70
     0
  4
mm
 41
0.1
 42
0.05
 43
0.5
 44
0.1
 47
0.1
 48
0.1
 75
     1
 76
     1
 78
     7
 79
     2
140
0.12
141
0.0
146
0.71
147
0.06
176
   256
177
   256
178
     2
274
     4
284
     7
340
11
371
    -1
372
    -1
  0
DIMSTYLE
105
2C7
330
A
100
AcDbSymbolTableRecord
100
AcDbDimStyleTableRecord
  2
AM_ANSI$SH
 70
     0
  4
mm
 41
0.1
 42
0.05
 43
0.5
 44
0.1
 47
0.1
 48
0.1
 75
     1
 76
     1
 78
     7
 79
     2
140
0.12
141
0.0
146
0.71
147
0.06
173
     1
176
   256
177
   256
178
     2
274
     4
284
     7
340
11
343
87
371
    -1
372
    -1
  0
DIMSTYLE
105
3F3
330
A
100
AcDbSymbolTableRecord
100
AcDbDimStyleTableRecord
  2
AM_JIS
 70
     0
  4
"
 41
2.5
 42
1.0
 43
10.0
 44
1.0
 47
0.1
 48
0.1
 73
     0
 74
     0
 77
     3
 78
     8
 79
     2
140
3.5
141
0.0
143
0.0393701
146
0.71
147
1.5
172
     1
176
   256
177
   256
178
     2
271
     2
272
     3
274
     4
283
     0
284
     8
340
11
341
2F8
342
2F8
343
2F8
344
2F8
371
    -1
372
    -1
  0
DIMSTYLE
105
3F4
330
A
100
AcDbSymbolTableRecord
100
AcDbDimStyleTableRecord
  2
AM_JIS$3
 70
     0
  4
"
 41
2.5
 42
1.0
 43
10.0
 44
1.0
 47
0.1
 48
0.1
 73
     0
 77
     3
 78
     8
 79
     2
140
3.5
141
0.0
143
0.0393701
146
0.71
147
1.5
176
   256
177
   256
178
     2
271
     2
272
     3
274
     4
283
     0
284
     8
288
     1
289
     0
340
11
341
2F8
342
2F8
343
2F8
344
2F8
371
    -1
372
    -1
  0
DIMSTYLE
105
3F5
330
A
100
AcDbSymbolTableRecord
100
AcDbDimStyleTableRecord
  2
AM_JIS$4
 70
     0
  4
"
 41
2.5
 42
1.0
 43
10.0
 44
1.0
 47
0.1
 48
0.1
 73
     0
 77
     3
 78
     8
 79
     2
140
3.5
141
0.0
143
0.0393701
146
0.71
147
1.5
176
   256
177
   256
178
     2
271
     2
272
     3
274
     4
283
     0
284
     8
288
     1
289
     0
340
11
341
2F8
342
2F8
343
2F8
344
2F8
371
    -1
372
    -1
  0
DIMSTYLE
105
3F6
330
A
100
AcDbSymbolTableRecord
100
AcDbDimStyleTableRecord
  2
AM_JIS$6
 70
     0
  4
"
 41
2.5
 42
1.0
 43
10.0
 44
1.0
 47
0.1
 48
0.1
 73
     0
 74
     0
 78
     8
 79
     2
140
3.5
141
0.0
143
0.0393701
146
0.71
147
1.5
172
     1
176
   256
177
   256
178
     2
271
     2
272
     3
274
     4
283
     0
284
     8
340
11
341
2F8
342
2F8
343
2F8
344
2F8
371
    -1
372
    -1
  0
DIMSTYLE
105
3F7
330
A
100
AcDbSymbolTableRecord
100
AcDbDimStyleTableRecord
  2
AM_JIS$7
 70
     0
  4
"
 41
2.5
 42
1.0
 43
10.0
 44
1.0
 47
0.1
 48
0.1
 73
     0
 74
     0
 77
     3
 78
     8
 79
     2
140
3.5
141
0.0
143
0.0393701
146
0.71
147
1.5
172
     1
176
   256
177
   256
178
     2
271
     2
272
     3
274
     4
283
     0
284
     8
340
11
341
2F8
342
2F8
343
2F8
344
2F8
371
    -1
372
    -1
  0
DIMSTYLE
105
3F8
330
A
100
AcDbSymbolTableRecord
100
AcDbDimStyleTableRecord
  2
AM_JIS$SF
 70
     0
  4
"
 41
2.5
 42
1.0
 43
10.0
 44
1.0
 47
0.1
 48
0.1
 73
     0
 74
     0
 75
     1
 76
     1
 77
     3
 78
     8
 79
     2
140
3.5
141
0.0
143
0.0393701
146
0.71
147
1.5
172
     1
176
   256
177
   256
178
     2
271
     2
272
     3
274
     4
283
     0
284
     8
340
11
341
2F8
342
2F8
343
2F8
344
2F8
371
    -1
372
    -1
  0
DIMSTYLE
105
3F9
330
A
100
AcDbSymbolTableRecord
100
AcDbDimStyleTableRecord
  2
AM_JIS$SH
 70
     0
  4
"
 41
2.5
 42
1.0
 43
10.0
 44
1.0
 47
0.1
 48
0.1
 73
     0
 74
     0
 75
     1
 76
     1
 77
     3
 78
     8
 79
     2
140
3.5
141
0.0
143
0.0393701
144
2.0
146
0.71
147
1.5
172
     1
173
     1
176
   256
177
   256
178
     2
271
     2
272
     3
274
     4
283
     0
284
     8
340
11
341
2F8
342
2F8
343
87
344
2F8
371
    -1
372
    -1
  0
DIMSTYLE
105
3FA
330
A
100
AcDbSymbolTableRecord
100
AcDbDimStyleTableRecord
  2
AM_JIS$0
 70
     0
  4
"
 41
2.5
 42
1.0
 43
10.0
 44
1.0
 47
0.1
 48
0.1
 73
     0
 74
     0
 77
     3
 78
     8
 79
     2
140
3.5
141
0.0
143
0.0393701
146
0.71
147
1.5
172
     1
176
   256
177
   256
178
     2
271
     2
272
     3
274
     4
283
     0
284
     8
340
11
341
2F8
342
2F8
343
2F8
344
2F8
371
    -1
372
    -1
  0
DIMSTYLE
105
3FB
330
A
100
AcDbSymbolTableRecord
100
AcDbDimStyleTableRecord
  2
STANDARD$0
 70
     0
 41
1.0
 42
2.54
 44
2.54
 73
     0
 74
     0
 77
     1
140
3.200000047683715
145
1.0
147
1.600000023841857
173
     1
271
     2
275
     1
340
11
  0
DIMSTYLE
105
87F
102
{ACAD_REACTORS
330
883
330
8A9
330
920
330
99B
102
}
330
A
100
AcDbSymbolTableRecord
100
AcDbDimStyleTableRecord
  2
AM_ISO$0
 70
     0
  4
"
 41
2.5
 42
1.0
 43
10.0
 44
1.0
 47
0.1
 48
0.1
 73
     0
 74
     0
 77
     1
 78
     8
 79
     2
140
3.5
141
0.0
143
0.0393701
146
0.71
147
1.5
172
     1
176
   256
177
   256
178
     2
271
     2
272
     3
274
     4
283
     0
284
     8
340
11
371
    -1
372
    -1
  0
DIMSTYLE
105
A56
330
A
100
AcDbSymbolTableRecord
100
AcDbDimStyleTableRecord
  2
MXDIMSTYLE
 70
     0
 41
2.5
 42
2.539999961853027
 43
3.75
 44
2.28600001335144
 73
     0
 74
     0
 77
     1
 78
     8
140
3.200000047683715
141
2.5
143
0.03937007874016
147
1.0
171
     4
172
     1
173
     1
271
     2
272
     2
274
     4
283
     0
288
     1
340
A55
341
2F8
343
2F8
344
2F8
  0
ENDTAB
  0
TABLE
  2
BLOCK_RECORD
  5
1
330
0
100
AcDbSymbolTable
 70
    19
  0
BLOCK_RECORD
  5
1F
102
{ACAD_XDICTIONARY
360
8F
102
}
330
1
100
AcDbSymbolTableRecord
100
AcDbBlockTableRecord
  2
*Model_Space
340
22
  0
BLOCK_RECORD
  5
1B
330
1
100
AcDbSymbolTableRecord
100
AcDbBlockTableRecord
  2
*Paper_Space
340
1E
  0
BLOCK_RECORD
  5
23
330
1
100
AcDbSymbolTableRecord
100
AcDbBlockTableRecord
  2
*Paper_Space0
340
26
  0
BLOCK_RECORD
  5
87
330
1
100
AcDbSymbolTableRecord
100
AcDbBlockTableRecord
  2
GENAXEH
340
0
  0
BLOCK_RECORD
  5
267
330
1
100
AcDbSymbolTableRecord
100
AcDbBlockTableRecord
  2
A$C5AA57AD5
340
0
  0
BLOCK_RECORD
  5
2CF
102
{ACAD_XDICTIONARY
360
2D8
102
}
330
1
100
AcDbSymbolTableRecord
100
AcDbBlockTableRecord
  2
帝金図面用紙HP用
340
0
102
{BLKREFS
331
2F6
102
}
  0
BLOCK_RECORD
  5
2F8
330
1
100
AcDbSymbolTableRecord
100
AcDbBlockTableRecord
  2
_Open30
340
0
  0
BLOCK_RECORD
  5
301
102
{ACAD_XDICTIONARY
360
302
102
}
330
1
100
AcDbSymbolTableRecord
100
AcDbBlockTableRecord
  2
A$C61314446
340
0
  0
BLOCK_RECORD
  5
3FC
102
{ACAD_XDICTIONARY
360
4ED
102
}
330
1
100
AcDbSymbolTableRecord
100
AcDbBlockTableRecord
  2
表題HP用
340
0
102
{BLKREFS
331
507
102
}
  0
BLOCK_RECORD
  5
6D8
330
1
100
AcDbSymbolTableRecord
100
AcDbBlockTableRecord
  2
_OPEN
340
0
102
{BLKREFS
331
6E3
331
6E4
102
}
  0
BLOCK_RECORD
  5
6DE
330
1
100
AcDbSymbolTableRecord
100
AcDbBlockTableRecord
  2
*D8
340
0
  0
BLOCK_RECORD
  5
6ED
330
1
100
AcDbSymbolTableRecord
100
AcDbBlockTableRecord
  2
A$C3FC05445
340
0
  0
BLOCK_RECORD
  5
884
330
1
100
AcDbSymbolTableRecord
100
AcDbBlockTableRecord
  2
*D10
340
0
  0
BLOCK_RECORD
  5
8AA
330
1
100
AcDbSymbolTableRecord
100
AcDbBlockTableRecord
  2
*D11
340
0
  0
BLOCK_RECORD
  5
921
330
1
100
AcDbSymbolTableRecord
100
AcDbBlockTableRecord
  2
*D12
340
0
  0
BLOCK_RECORD
  5
99C
330
1
100
AcDbSymbolTableRecord
100
AcDbBlockTableRecord
  2
*D13
340
0
  0
BLOCK_RECORD
  5
A4A
330
1
100
AcDbSymbolTableRecord
100
AcDbBlockTableRecord
  2
$RECT
340
0
  0
BLOCK_RECORD
  5
CDE
330
1
100
AcDbSymbolTableRecord
100
AcDbBlockTableRecord
  2
*S15
340
0
102
{BLKREFS
331
988
102
}
  0
BLOCK_RECORD
  5
CE6
330
1
100
AcDbSymbolTableRecord
100
AcDbBlockTableRecord
  2
*S16
340
0
102
{BLKREFS
331
BAC
102
}
  0
ENDTAB
  0
ENDSEC
  0
SECTION
  2
BLOCKS
  0
BLOCK
  5
20
330
1F
100
AcDbEntity
  8
0
100
AcDbBlockBegin
  2
*Model_Space
 70
     0
 10
0.0
 20
0.0
 30
0.0
  3
*Model_Space
  1

  0
ENDBLK
  5
21
330
1F
100
AcDbEntity
  8
0
100
AcDbBlockEnd
  0
BLOCK
  5
1C
330
1B
100
AcDbEntity
 67
     1
  8
0
100
AcDbBlockBegin
  2
*Paper_Space
 70
     0
 10
0.0
 20
0.0
 30
0.0
  3
*Paper_Space
  1

  0
ENDBLK
  5
1D
330
1B
100
AcDbEntity
 67
     1
  8
0
100
AcDbBlockEnd
  0
BLOCK
  5
24
330
23
100
AcDbEntity
  8
0
100
AcDbBlockBegin
  2
*Paper_Space0
 70
     0
 10
0.0
 20
0.0
 30
0.0
  3
*Paper_Space0
  1

  0
ENDBLK
  5
25
330
23
100
AcDbEntity
  8
0
100
AcDbBlockEnd
  0
BLOCK
  5
89
330
87
100
AcDbEntity
  8
0
100
AcDbBlockBegin
  2
GENAXEH
 70
     0
 10
0.0
 20
0.0
 30
0.0
  3
GENAXEH
  1

  0
LINE
  5
88
330
87
100
AcDbEntity
  8
0
100
AcDbLine
 10
-1.0
 20
0.0
 30
0.0
 11
1.0
 21
0.0
 31
0.0
  0
ENDBLK
  5
8A
330
87
100
AcDbEntity
  8
0
100
AcDbBlockEnd
  0
BLOCK
  5
268
330
267
100
AcDbEntity
  8
0
100
AcDbBlockBegin
  2
A$C5AA57AD5
 70
     0
 10
0.0
 20
0.0
 30
0.0
  3
A$C5AA57AD5
  1

  0
LINE
  5
269
330
267
100
AcDbEntity
  8
LAYER002
  6
Continuous
 62
     2
100
AcDbLine
 10
24.89633127719469
 20
6.150010828878748
 30
0.0
 11
25.04629465610089
 21
6.150010828878748
 31
0.0
  0
LINE
  5
26A
330
267
100
AcDbEntity
  8
LAYER002
  6
Continuous
 62
     2
100
AcDbLine
 10
24.89633127719469
 20
7.650010828878748
 30
0.0
 11
25.70883127719469
 21
7.650010828878748
 31
0.0
  0
LINE
  5
26B
330
267
100
AcDbEntity
  8
LAYER002
  6
Continuous
 62
     2
100
AcDbLine
 10
25.97311350375719
 20
6.150010828878748
 30
0.0
 11
26.14633127719469
 21
6.150010828878748
 31
0.0
  0
LINE
  5
26C
330
267
100
AcDbEntity
  8
LAYER002
  6
Continuous
 62
     2
100
AcDbLine
 10
24.89633127719469
 20
7.650010828878748
 30
0.0
 11
24.89633127719469
 21
6.150010828878748
 31
0.0
  0
LINE
  5
26D
330
267
100
AcDbEntity
  8
LAYER002
  6
Continuous
 62
     2
100
AcDbLine
 10
25.04629465610089
 20
7.499986414816248
 30
0.0
 11
25.04629465610089
 21
6.925004725363123
 31
0.0
  0
LINE
  5
26E
330
267
100
AcDbEntity
  8
LAYER002
  6
Continuous
 62
     2
100
AcDbLine
 10
25.04629465610089
 20
6.775010828878748
 30
0.0
 11
25.61227366000719
 21
6.775010828878748
 31
0.0
  0
LINE
  5
26F
330
267
100
AcDbEntity
  8
LAYER002
  6
Continuous
 62
     2
100
AcDbLine
 10
25.04629465610089
 20
7.499986414816248
 30
0.0
 11
25.70883127719469
 21
7.499986414816248
 31
0.0
  0
LINE
  5
270
330
267
100
AcDbEntity
  8
LAYER002
  6
Continuous
 62
     2
100
AcDbLine
 10
25.04629465610089
 20
6.925004725363123
 30
0.0
 11
25.70883127719469
 21
6.925004725363123
 31
0.0
  0
LINE
  5
271
330
267
100
AcDbEntity
  8
LAYER002
  6
Continuous
 62
     2
100
AcDbLine
 10
25.04629465610089
 20
6.775010828878748
 30
0.0
 11
25.04629465610089
 21
6.150010828878748
 31
0.0
  0
LINE
  5
272
330
267
100
AcDbEntity
  8
LAYER002
  6
Continuous
 62
     2
100
AcDbLine
 10
25.78191258815332
 20
6.781194719957397
 30
0.0
 11
26.14630773466007
 21
6.150043823504233
 31
0.0
  0
LINE
  5
273
330
267
100
AcDbEntity
  8
LAYER002
  6
Continuous
 62
     2
100
AcDbLine
 10
25.6122517034263
 20
6.775037680579032
 30
0.0
 11
25.97309155203368
 21
6.150044740613225
 31
0.0
  0
LINE
  5
274
330
267
100
AcDbEntity
  8
LAYER002
  6
Continuous
 62
     2
100
AcDbLine
 10
-0.0000005099146847
 20
7.800004725363123
 30
0.0
 11
6.299987283054065
 21
7.800004725363123
 31
0.0
  0
LINE
  5
275
330
267
100
AcDbEntity
  8
LAYER002
  6
Continuous
 62
     2
100
AcDbLine
 10
-0.0000005099146847
 20
7.800004725363123
 30
0.0
 11
-0.0000005099146847
 21
6.50001693239443
 31
0.0
  0
LINE
  5
276
330
267
100
AcDbEntity
  8
LAYER002
  6
Continuous
 62
     2
100
AcDbLine
 10
-0.0000005099146847
 20
6.50001693239443
 30
0.0
 11
2.499999490085315
 21
6.50001693239443
 31
0.0
  0
LINE
  5
277
330
267
100
AcDbEntity
  8
LAYER002
  6
Continuous
 62
     2
100
AcDbLine
 10
2.499999490085315
 20
6.50001693239443
 30
0.0
 11
2.499999490085315
 21
0.0000169323944306
 31
0.0
  0
LINE
  5
278
330
267
100
AcDbEntity
  8
LAYER002
  6
Continuous
 62
     2
100
AcDbLine
 10
3.799987283054065
 20
6.50001693239443
 30
0.0
 11
3.799987283054065
 21
0.0000169323944306
 31
0.0
  0
LINE
  5
279
330
267
100
AcDbEntity
  8
LAYER002
  6
Continuous
 62
     2
100
AcDbLine
 10
3.799987283054065
 20
6.50001693239443
 30
0.0
 11
6.299987283054065
 21
6.50001693239443
 31
0.0
  0
LINE
  5
27A
330
267
100
AcDbEntity
  8
LAYER002
  6
Continuous
 62
     2
100
AcDbLine
 10
6.299987283054065
 20
7.800004725363123
 30
0.0
 11
6.299987283054065
 21
6.50001693239443
 31
0.0
  0
LINE
  5
27B
330
267
100
AcDbEntity
  8
LAYER002
  6
Continuous
 62
     2
100
AcDbLine
 10
2.499999490085315
 20
0.0000169323944306
 30
0.0
 11
3.799987283054065
 21
0.0000169323944306
 31
0.0
  0
LINE
  5
27C
330
267
100
AcDbEntity
  8
LAYER002
  6
Continuous
 62
     2
100
AcDbLine
 10
5.60079905063219
 20
2.50001693239443
 30
0.0
 11
10.02227732211656
 21
2.50001693239443
 31
0.0
  0
LINE
  5
27D
330
267
100
AcDbEntity
  8
LAYER002
  6
Continuous
 62
     2
100
AcDbLine
 10
5.82711741000719
 20
3.800004725363123
 30
0.0
 11
8.47286936313219
 21
3.800004725363123
 31
0.0
  0
LINE
  5
27E
330
267
100
AcDbEntity
  8
LAYER002
  6
Continuous
 62
     2
100
AcDbLine
 10
8.208441908543989
 20
1.700152810507233
 30
0.0
 11
9.128686314174387
 21
0.7799084048767213
 31
0.0
  0
LINE
  5
27F
330
267
100
AcDbEntity
  8
LAYER002
  6
Continuous
 62
     2
100
AcDbLine
 10
10.49999949008531
 20
7.800004725363123
 30
0.0
 11
11.79998728305406
 21
7.800004725363123
 31
0.0
  0
LINE
  5
280
330
267
100
AcDbEntity
  8
LAYER002
  6
Continuous
 62
     2
100
AcDbLine
 10
11.79998728305406
 20
7.800004725363123
 30
0.0
 11
11.79998728305406
 21
6.50001693239443
 31
0.0
  0
LINE
  5
281
330
267
100
AcDbEntity
  8
LAYER002
  6
Continuous
 62
     2
100
AcDbLine
 10
10.49999949008531
 20
6.50001693239443
 30
0.0
 11
11.79998728305406
 21
6.50001693239443
 31
0.0
  0
LINE
  5
282
330
267
100
AcDbEntity
  8
LAYER002
  6
Continuous
 62
     2
100
AcDbLine
 10
10.49999949008531
 20
7.800004725363123
 30
0.0
 11
10.49999949008531
 21
6.50001693239443
 31
0.0
  0
LINE
  5
283
330
267
100
AcDbEntity
  8
LAYER002
  6
Continuous
 62
     2
100
AcDbLine
 10
10.49999949008531
 20
5.800004725363123
 30
0.0
 11
11.79998728305406
 21
5.800004725363123
 31
0.0
  0
LINE
  5
284
330
267
100
AcDbEntity
  8
LAYER002
  6
Continuous
 62
     2
100
AcDbLine
 10
11.79998728305406
 20
5.800004725363123
 30
0.0
 11
11.79998728305406
 21
0.0000169323944306
 31
0.0
  0
LINE
  5
285
330
267
100
AcDbEntity
  8
LAYER002
  6
Continuous
 62
     2
100
AcDbLine
 10
10.49999949008531
 20
0.0000169323944306
 30
0.0
 11
11.79998728305406
 21
0.0000169323944306
 31
0.0
  0
LINE
  5
286
330
267
100
AcDbEntity
  8
LAYER002
  6
Continuous
 62
     2
100
AcDbLine
 10
10.49999949008531
 20
5.800004725363123
 30
0.0
 11
10.49999949008531
 21
0.0000169323944306
 31
0.0
  0
LINE
  5
287
330
267
100
AcDbEntity
  8
LAYER002
  6
Continuous
 62
     2
100
AcDbLine
 10
12.49999949008531
 20
7.800004725363123
 30
0.0
 11
12.49999949008531
 21
0.0000169323944306
 31
0.0
  0
LINE
  5
288
330
267
100
AcDbEntity
  8
LAYER002
  6
Continuous
 62
     2
100
AcDbLine
 10
12.49999949008531
 20
7.800004725363123
 30
0.0
 11
13.79998728305406
 21
7.800004725363123
 31
0.0
  0
LINE
  5
289
330
267
100
AcDbEntity
  8
LAYER002
  6
Continuous
 62
     2
100
AcDbLine
 10
13.79998728305406
 20
7.800004725363123
 30
0.0
 11
13.79998728305406
 21
3.90858626833193
 31
0.0
  0
LINE
  5
28A
330
267
100
AcDbEntity
  8
LAYER002
  6
Continuous
 62
     2
100
AcDbLine
 10
13.79999753987618
 20
3.908566750528905
 30
0.0
 11
15.69143481031631
 21
5.800004020969026
 31
0.0
  0
LINE
  5
28B
330
267
100
AcDbEntity
  8
LAYER002
  6
Continuous
 62
     2
100
AcDbLine
 10
15.69143625766338
 20
5.800004725363123
 30
0.0
 11
17.52990671664781
 21
5.800004725363123
 31
0.0
  0
LINE
  5
28C
330
267
100
AcDbEntity
  8
LAYER002
  6
Continuous
 62
     2
100
AcDbLine
 10
15.45020647992731
 20
3.720315322844101
 30
0.0
 11
17.5299059676455
 21
5.800014810562231
 31
0.0
  0
LINE
  5
28D
330
267
100
AcDbEntity
  8
LAYER002
  6
Continuous
 62
     2
100
AcDbLine
 10
15.45020502569451
 20
3.720304490799207
 30
0.0
 11
17.59812375577991
 21
0.000000186535317
 31
0.0
  0
LINE
  5
28E
330
267
100
AcDbEntity
  8
LAYER002
  6
Continuous
 62
     2
100
AcDbLine
 10
16.09701487094469
 20
0.0000169323944306
 30
0.0
 11
17.59811350375719
 21
0.0000169323944306
 31
0.0
  0
LINE
  5
28F
330
267
100
AcDbEntity
  8
LAYER002
  6
Continuous
 62
     2
100
AcDbLine
 10
14.4985463981294
 20
2.768650004680011
 30
0.0
 11
16.09702664425617
 21
0.0000010531855423
 31
0.0
  0
LINE
  5
290
330
267
100
AcDbEntity
  8
LAYER002
  6
Continuous
 62
     2
100
AcDbLine
 10
13.79998675028298
 20
2.070095593199823
 30
0.0
 11
14.49853738404698
 21
2.768646226963824
 31
0.0
  0
LINE
  5
291
330
267
100
AcDbEntity
  8
LAYER002
  6
Continuous
 62
     2
100
AcDbLine
 10
13.79998728305406
 20
2.07008529176943
 30
0.0
 11
13.79998728305406
 21
0.0000169323944306
 31
0.0
  0
LINE
  5
292
330
267
100
AcDbEntity
  8
LAYER002
  6
Continuous
 62
     2
100
AcDbLine
 10
12.49999949008531
 20
0.0000169323944306
 30
0.0
 11
13.79998728305406
 21
0.0000169323944306
 31
0.0
  0
LINE
  5
293
330
267
100
AcDbEntity
  8
LAYER002
  6
Continuous
 62
     2
100
AcDbLine
 10
18.12133738071031
 20
7.800004725363123
 30
0.0
 11
19.42132517367906
 21
7.800004725363123
 31
0.0
  0
LINE
  5
294
330
267
100
AcDbEntity
  8
LAYER002
  6
Continuous
 62
     2
100
AcDbLine
 10
19.42132517367906
 20
7.800004725363123
 30
0.0
 11
19.42132517367906
 21
6.50001693239443
 31
0.0
  0
LINE
  5
295
330
267
100
AcDbEntity
  8
LAYER002
  6
Continuous
 62
     2
100
AcDbLine
 10
18.12133738071031
 20
7.800004725363123
 30
0.0
 11
18.12133738071031
 21
6.50001693239443
 31
0.0
  0
LINE
  5
296
330
267
100
AcDbEntity
  8
LAYER002
  6
Continuous
 62
     2
100
AcDbLine
 10
18.12133738071031
 20
6.50001693239443
 30
0.0
 11
19.42132517367906
 21
6.50001693239443
 31
0.0
  0
LINE
  5
297
330
267
100
AcDbEntity
  8
LAYER002
  6
Continuous
 62
     2
100
AcDbLine
 10
19.42132517367906
 20
5.800004725363123
 30
0.0
 11
19.42132517367906
 21
0.0000169323944306
 31
0.0
  0
LINE
  5
298
330
267
100
AcDbEntity
  8
LAYER002
  6
Continuous
 62
     2
100
AcDbLine
 10
18.12133738071031
 20
5.800004725363123
 30
0.0
 11
19.42132517367906
 21
5.800004725363123
 31
0.0
  0
LINE
  5
299
330
267
100
AcDbEntity
  8
LAYER002
  6
Continuous
 62
     2
100
AcDbLine
 10
18.12133738071031
 20
5.800004725363123
 30
0.0
 11
18.12133738071031
 21
0.0000169323944306
 31
0.0
  0
LINE
  5
29A
330
267
100
AcDbEntity
  8
LAYER002
  6
Continuous
 62
     2
100
AcDbLine
 10
18.12133738071031
 20
0.0000169323944306
 30
0.0
 11
19.42132517367906
 21
0.0000169323944306
 31
0.0
  0
LINE
  5
29B
330
267
100
AcDbEntity
  8
LAYER002
  6
Continuous
 62
     2
100
AcDbLine
 10
20.12133738071032
 20
5.800004725363123
 30
0.0
 11
20.12133738071032
 21
0.0000169323944306
 31
0.0
  0
LINE
  5
29C
330
267
100
AcDbEntity
  8
LAYER002
  6
Continuous
 62
     2
100
AcDbLine
 10
20.12133738071032
 20
5.800004725363123
 30
0.0
 11
21.42132517367906
 21
5.800004725363123
 31
0.0
  0
LINE
  5
29D
330
267
100
AcDbEntity
  8
LAYER002
  6
Continuous
 62
     2
100
AcDbLine
 10
21.42132517367906
 20
5.800004725363123
 30
0.0
 11
21.42132517367906
 21
5.430375819113123
 31
0.0
  0
LINE
  5
29E
330
267
100
AcDbEntity
  8
LAYER002
  6
Continuous
 62
     2
100
AcDbLine
 10
25.42132517367907
 20
3.150010828878748
 30
0.0
 11
25.42132517367907
 21
0.0000169323944306
 31
0.0
  0
LINE
  5
29F
330
267
100
AcDbEntity
  8
LAYER002
  6
Continuous
 62
     2
100
AcDbLine
 10
24.12133738071032
 20
0.0000169323944306
 30
0.0
 11
25.42132517367907
 21
0.0000169323944306
 31
0.0
  0
LINE
  5
2A0
330
267
100
AcDbEntity
  8
LAYER002
  6
Continuous
 62
     2
100
AcDbLine
 10
24.12133738071032
 20
3.150010828878748
 30
0.0
 11
24.12133738071032
 21
0.0000169323944306
 31
0.0
  0
LINE
  5
2A1
330
267
100
AcDbEntity
  8
LAYER002
  6
Continuous
 62
     2
100
AcDbLine
 10
21.42132517367906
 20
3.150010828878748
 30
0.0
 11
21.42132517367906
 21
0.0000169323944306
 31
0.0
  0
LINE
  5
2A2
330
267
100
AcDbEntity
  8
LAYER002
  6
Continuous
 62
     2
100
AcDbLine
 10
20.12133738071032
 20
0.0000169323944306
 30
0.0
 11
21.42132517367906
 21
0.0000169323944306
 31
0.0
  0
CIRCLE
  5
2A3
330
267
100
AcDbEntity
  8
LAYER002
  6
Continuous
 62
     2
100
AcDbCircle
 10
25.52133127719469
 20
6.900010828878748
 30
0.0
 40
1.3125
  0
ARC
  5
2A4
330
267
100
AcDbEntity
  8
LAYER002
  6
Continuous
 62
     2
100
AcDbCircle
 10
25.70883127719469
 20
7.212510828878748
 30
0.0
 40
0.4375
100
AcDbArc
 50
279.6190553564883
 51
90.0000025044752
  0
CIRCLE
  5
2A5
330
267
100
AcDbEntity
  8
LAYER002
  6
Continuous
 62
     2
100
AcDbCircle
 10
25.52133127719469
 20
6.900010828878748
 30
0.0
 40
1.212499976158142
  0
ARC
  5
2A6
330
267
100
AcDbEntity
  8
LAYER002
  6
Continuous
 62
     2
100
AcDbCircle
 10
25.70883127719469
 20
7.212510828878748
 30
0.0
 40
0.2874999940395355
100
AcDbArc
 50
269.999997495528
 51
90.00000250447195
  0
ARC
  5
2A7
330
267
100
AcDbEntity
  8
LAYER002
  6
Continuous
 62
     2
100
AcDbCircle
 10
7.14999338656969
 20
2.900010828878748
 30
0.0
 40
1.600000023841857
100
AcDbArc
 50
34.22886464811413
 51
145.7711403608408
  0
ARC
  5
2A8
330
267
100
AcDbEntity
  8
LAYER002
  6
Continuous
 62
     2
100
AcDbCircle
 10
7.14999338656969
 20
2.900010828878748
 30
0.0
 40
2.900000095367431
100
AcDbArc
 50
350.4059320936599
 51
352.0718579209092
  0
ARC
  5
2A9
330
267
100
AcDbEntity
  8
LAYER002
  6
Continuous
 62
     2
100
AcDbCircle
 10
7.14999338656969
 20
2.900010828878748
 30
0.0
 40
1.600000023841857
100
AcDbArc
 50
194.4775098426155
 51
311.4169259054017
  0
ARC
  5
2AA
330
267
100
AcDbEntity
  8
LAYER002
  6
Continuous
 62
     2
100
AcDbCircle
 10
7.14999338656969
 20
2.900010828878748
 30
0.0
 40
2.900000095367431
100
AcDbArc
 50
352.0718579209092
 51
313.0240179633187
  0
ARC
  5
2AB
330
267
100
AcDbEntity
  8
LAYER002
  6
Continuous
 62
     2
100
AcDbCircle
 10
22.77133127719469
 20
3.150010828878748
 30
0.0
 40
2.650000095367432
100
AcDbArc
 50
0.0
 51
120.6261267805192
  0
ARC
  5
2AC
330
267
100
AcDbEntity
  8
LAYER002
  6
Continuous
 62
     2
100
AcDbCircle
 10
22.77133127719469
 20
3.150010828878748
 30
0.0
 40
1.350000023841857
100
AcDbArc
 50
0.0
 51
180.0000050089569
  0
ENDBLK
  5
2AD
330
267
100
AcDbEntity
  8
0
100
AcDbBlockEnd
  0
BLOCK
  5
2DA
330
2CF
100
AcDbEntity
  8
0
100
AcDbBlockBegin
  2
帝金図面用紙HP用
 70
     0
 10
0.0
 20
0.0
 30
0.0
  3
帝金図面用紙HP用
  1

  0
TEXT
  5
2D0
330
2CF
100
AcDbEntity
  8
図枠
 60
     1
100
AcDbText
 10
20.0
 20
15.0
 30
0.0
 40
3.5
  1
!GENTITLE-LL
100
AcDbText
  0
TEXT
  5
2D1
330
2CF
100
AcDbEntity
  8
図枠
 60
     1
100
AcDbText
 10
405.0
 20
282.0
 30
0.0
 40
3.5
  1
!GENTITLE-RU
100
AcDbText
  0
TEXT
  5
2D2
330
2CF
100
AcDbEntity
  8
図枠
 60
     1
100
AcDbText
 10
420.0
 20
297.0
 30
0.0
 40
3.5
  1
!GENTITLE-MAX
100
AcDbText
  0
TEXT
  5
2D3
330
2CF
100
AcDbEntity
  8
図枠
 60
     1
100
AcDbText
 10
404.9999999999999
 20
15.0
 30
0.0
 40
3.5
  1
!GENTITLE-INSERT
100
AcDbText
  0
LINE
  5
2D4
330
2CF
100
AcDbEntity
  8
図枠
 62
     1
370
    40
100
AcDbLine
 10
20.0
 20
15.0
 30
0.0
 11
404.9999999999999
 21
15.0
 31
0.0
1001
GENIUS_GENREC_14
1002
{
1000
PYDIR
1011
0.0000000000000182
1021
297.0
1031
0.0
1002
}
1002
{
1000
PXDIR
1011
420.0
1021
0.0
1031
0.0
1002
}
1002
{
1000
PORI
1011
0.0
1021
0.0
1031
0.0
1002
}
1002
{
1000
PINS
1011
0.0
1021
0.0
1031
0.0
1002
}
1002
{
1000
PINS2
1011
420.0
1021
297.0
1031
0.0
1002
}
1002
{
1000
C
1070
     1
1002
}
1001
GENIUS_GENOBJ-N-REC_13
1002
{
1000
OWNER
1000
GEN
1002
}
1001
GENIUS_GENODEF_13
1002
{
1000
HIER
1070
     0
1002
}
1002
{
1000
MANEDIT
1070
     0
1002
}
1002
{
1000
NOSEL
1070
     0
1002
}
1002
{
1000
BEHIND
1070
     0
1002
}
1002
{
1000
OTHER
1070
     0
1002
}
1002
{
1000
REACTOR
1002
}
  0
LINE
  5
2D5
330
2CF
100
AcDbEntity
  8
図枠
 62
     1
370
    40
100
AcDbLine
 10
404.9999999999999
 20
15.0
 30
0.0
 11
405.0
 21
282.0
 31
0.0
1001
GENIUS_GENREC_14
1002
{
1000
PYDIR
1011
0.0000000000000182
1021
297.0
1031
0.0
1002
}
1002
{
1000
PXDIR
1011
420.0
1021
0.0
1031
0.0
1002
}
1002
{
1000
PORI
1011
0.0
1021
0.0
1031
0.0
1002
}
1002
{
1000
PINS
1011
0.0
1021
0.0
1031
0.0
1002
}
1002
{
1000
PINS2
1011
420.0
1021
297.0
1031
0.0
1002
}
1002
{
1000
C
1070
     1
1002
}
1001
GENIUS_GENOBJ-N-REC_13
1002
{
1000
OWNER
1000
GEN
1002
}
1001
GENIUS_GENODEF_13
1002
{
1000
HIER
1070
     0
1002
}
1002
{
1000
MANEDIT
1070
     0
1002
}
1002
{
1000
NOSEL
1070
     0
1002
}
1002
{
1000
BEHIND
1070
     0
1002
}
1002
{
1000
OTHER
1070
     0
1002
}
1002
{
1000
REACTOR
1002
}
  0
LINE
  5
2D6
330
2CF
100
AcDbEntity
  8
図枠
 62
     1
370
    40
100
AcDbLine
 10
405.0
 20
282.0
 30
0.0
 11
19.99999999999994
 21
282.0000000000001
 31
0.0
1001
GENIUS_GENREC_14
1002
{
1000
PYDIR
1011
0.0000000000000182
1021
297.0
1031
0.0
1002
}
1002
{
1000
PXDIR
1011
420.0
1021
0.0
1031
0.0
1002
}
1002
{
1000
PORI
1011
0.0
1021
0.0
1031
0.0
1002
}
1002
{
1000
PINS
1011
0.0
1021
0.0
1031
0.0
1002
}
1002
{
1000
PINS2
1011
420.0
1021
297.0
1031
0.0
1002
}
1002
{
1000
C
1070
     1
1002
}
1001
GENIUS_GENOBJ-N-REC_13
1002
{
1000
OWNER
1000
GEN
1002
}
1001
GENIUS_GENODEF_13
1002
{
1000
HIER
1070
     0
1002
}
1002
{
1000
MANEDIT
1070
     0
1002
}
1002
{
1000
NOSEL
1070
     0
1002
}
1002
{
1000
BEHIND
1070
     0
1002
}
1002
{
1000
OTHER
1070
     0
1002
}
1002
{
1000
REACTOR
1002
}
  0
LINE
  5
2D7
330
2CF
100
AcDbEntity
  8
図枠
 62
     1
370
    40
100
AcDbLine
 10
19.99999999999994
 20
282.0000000000001
 30
0.0
 11
20.0
 21
15.0
 31
0.0
1001
GENIUS_GENREC_14
1002
{
1000
PYDIR
1011
0.0000000000000182
1021
297.0
1031
0.0
1002
}
1002
{
1000
PXDIR
1011
420.0
1021
0.0
1031
0.0
1002
}
1002
{
1000
PORI
1011
0.0
1021
0.0
1031
0.0
1002
}
1002
{
1000
PINS
1011
0.0
1021
0.0
1031
0.0
1002
}
1002
{
1000
PINS2
1011
420.0
1021
297.0
1031
0.0
1002
}
1002
{
1000
C
1070
     1
1002
}
1001
GENIUS_GENOBJ-N-REC_13
1002
{
1000
OWNER
1000
GEN
1002
}
1001
GENIUS_GENODEF_13
1002
{
1000
HIER
1070
     0
1002
}
1002
{
1000
MANEDIT
1070
     0
1002
}
1002
{
1000
NOSEL
1070
     0
1002
}
1002
{
1000
BEHIND
1070
     0
1002
}
1002
{
1000
OTHER
1070
     0
1002
}
1002
{
1000
REACTOR
1002
}
  0
ENDBLK
  5
2DB
330
2CF
100
AcDbEntity
  8
0
100
AcDbBlockEnd
  0
BLOCK
  5
2F9
330
2F8
100
AcDbEntity
  8
0
100
AcDbBlockBegin
  2
_Open30
 70
     0
 10
0.0
 20
0.0
 30
0.0
  3
_Open30
  1

  0
LINE
  5
2FA
330
2F8
100
AcDbEntity
  8
0
  6
ByBlock
 62
     0
370
    -2
100
AcDbLine
 10
-1.0
 20
0.26794919
 30
0.0
 11
0.0
 21
0.0
 31
0.0
  0
LINE
  5
2FB
330
2F8
100
AcDbEntity
  8
0
  6
ByBlock
 62
     0
370
    -2
100
AcDbLine
 10
0.0
 20
0.0
 30
0.0
 11
-1.0
 21
-0.26794919
 31
0.0
  0
LINE
  5
2FC
330
2F8
100
AcDbEntity
  8
0
  6
ByBlock
 62
     0
370
    -2
100
AcDbLine
 10
0.0
 20
0.0
 30
0.0
 11
-1.0
 21
0.0
 31
0.0
  0
ENDBLK
  5
2FD
330
2F8
100
AcDbEntity
  8
0
100
AcDbBlockEnd
  0
BLOCK
  5
304
330
301
100
AcDbEntity
  8
0
100
AcDbBlockBegin
  2
A$C61314446
 70
     0
 10
0.0
 20
0.0
 30
0.0
  3
A$C61314446
  1

  0
LINE
  5
305
330
301
100
AcDbEntity
  8
LAYER002
  6
Continuous
 62
     2
100
AcDbLine
 10
12.05275422000162
 20
8.719910700870624
 30
0.0
 11
12.05275422000162
 21
8.286576350284693
 31
0.0
  0
LINE
  5
306
330
301
100
AcDbEntity
  8
LAYER002
  6
Continuous
 62
     2
100
AcDbLine
 10
12.05275422000162
 20
8.286576350284693
 30
0.0
 11
14.50108796023593
 21
8.286576350284693
 31
0.0
  0
LINE
  5
307
330
301
100
AcDbEntity
  8
LAYER002
  6
Continuous
 62
     2
100
AcDbLine
 10
14.50108796023593
 20
8.286576350284693
 30
0.0
 11
14.50108796023593
 21
7.576577265812034
 31
0.0
  0
LINE
  5
308
330
301
100
AcDbEntity
  8
LAYER002
  6
Continuous
 62
     2
100
AcDbLine
 10
13.38524323367343
 20
7.576577265812034
 30
0.0
 11
14.50108796023593
 21
7.576577265812034
 31
0.0
  0
LINE
  5
309
330
301
100
AcDbEntity
  8
LAYER002
  6
Continuous
 62
     2
100
AcDbLine
 10
13.38523414277964
 20
7.576580408279284
 30
0.0
 11
12.95308988009952
 21
6.769911096124715
 31
0.0
  0
LINE
  5
30A
330
301
100
AcDbEntity
  8
LAYER002
  6
Continuous
 62
     2
100
AcDbLine
 10
12.57977512382953
 20
7.576570791841692
 30
0.0
 11
12.14763446391282
 21
6.769908204845624
 31
0.0
  0
LINE
  5
30B
330
301
100
AcDbEntity
  8
LAYER002
  6
Continuous
 62
     2
100
AcDbLine
 10
10.72906952761872
 20
7.576577265812034
 30
0.0
 11
12.57977753543122
 21
7.576577265812034
 31
0.0
  0
LINE
  5
30C
330
301
100
AcDbEntity
  8
LAYER002
  6
Continuous
 62
     2
100
AcDbLine
 10
10.72906428613493
 20
7.576573597118514
 30
0.0
 11
11.16120854881504
 21
6.769904284963946
 31
0.0
  0
LINE
  5
30D
330
301
100
AcDbEntity
  8
LAYER002
  6
Continuous
 62
     2
100
AcDbLine
 10
9.923608869948338
 20
7.576576488397623
 30
0.0
 11
10.35574952986493
 21
6.769913901401555
 31
0.0
  0
LINE
  5
30E
330
301
100
AcDbEntity
  8
LAYER002
  6
Continuous
 62
     2
100
AcDbLine
 10
8.807759102814117
 20
7.576577265812034
 30
0.0
 11
9.923603829376617
 21
7.576577265812034
 31
0.0
  0
LINE
  5
30F
330
301
100
AcDbEntity
  8
LAYER002
  6
Continuous
 62
     2
100
AcDbLine
 10
8.807759102814117
 20
8.286576350284693
 30
0.0
 11
8.807759102814117
 21
7.576577265812034
 31
0.0
  0
LINE
  5
310
330
301
100
AcDbEntity
  8
LAYER002
  6
Continuous
 62
     2
100
AcDbLine
 10
8.807759102814117
 20
8.286576350284693
 30
0.0
 11
11.25609284304843
 21
8.286576350284693
 31
0.0
  0
LINE
  5
311
330
301
100
AcDbEntity
  8
LAYER002
  6
Continuous
 62
     2
100
AcDbLine
 10
11.25609284304843
 20
8.719910700870624
 30
0.0
 11
11.25609284304843
 21
8.286576350284693
 31
0.0
  0
LINE
  5
312
330
301
100
AcDbEntity
  8
LAYER002
  6
Continuous
 62
     2
100
AcDbLine
 10
11.25609284304843
 20
8.719910700870624
 30
0.0
 11
12.05275422000162
 21
8.719910700870624
 31
0.0
  0
LINE
  5
313
330
301
100
AcDbEntity
  8
LAYER002
  6
Continuous
 62
     2
100
AcDbLine
 10
8.656101998321929
 20
6.769909937931174
 30
0.0
 11
8.656101998321929
 21
5.019911845279803
 31
0.0
  0
LINE
  5
314
330
301
100
AcDbEntity
  8
LAYER002
  6
Continuous
 62
     2
100
AcDbLine
 10
8.656101998321929
 20
6.769909937931174
 30
0.0
 11
14.65274506472812
 21
6.769909937931174
 31
0.0
  0
LINE
  5
315
330
301
100
AcDbEntity
  8
LAYER002
  6
Continuous
 62
     2
100
AcDbLine
 10
14.65274506472812
 20
6.769909937931174
 30
0.0
 11
14.65274506472812
 21
5.019911845279803
 31
0.0
  0
LINE
  5
316
330
301
100
AcDbEntity
  8
LAYER002
  6
Continuous
 62
     2
100
AcDbLine
 10
14.05691986941562
 20
5.019911845279803
 30
0.0
 11
14.65274506472812
 21
5.019911845279803
 31
0.0
  0
LINE
  5
317
330
301
100
AcDbEntity
  8
LAYER002
  6
Continuous
 62
     2
100
AcDbLine
 10
14.05691986941562
 20
5.019911845279803
 30
0.0
 11
14.05691986941562
 21
3.403245051456563
 31
0.0
  0
LINE
  5
318
330
301
100
AcDbEntity
  8
LAYER002
  6
Continuous
 62
     2
100
AcDbLine
 10
12.81676178836093
 20
2.853244860721703
 30
0.0
 11
13.50691681765784
 21
2.853244860721703
 31
0.0
  0
LINE
  5
319
330
301
100
AcDbEntity
  8
LAYER002
  6
Continuous
 62
     2
100
AcDbLine
 10
12.64771874553932
 20
3.563242335873924
 30
0.0
 11
12.81676539349442
 21
2.853246392711543
 31
0.0
  0
LINE
  5
31A
330
301
100
AcDbEntity
  8
LAYER002
  6
Continuous
 62
     2
100
AcDbLine
 10
12.64770966433752
 20
3.563243945194354
 30
0.0
 11
13.13858490847812
 21
3.563243945194354
 31
0.0
  0
LINE
  5
31B
330
301
100
AcDbEntity
  8
LAYER002
  6
Continuous
 62
     2
100
AcDbLine
 10
13.34692841433752
 20
4.543244441105004
 30
0.0
 11
13.34692841433752
 21
3.771577914310574
 31
0.0
  0
LINE
  5
31C
330
301
100
AcDbEntity
  8
LAYER002
  6
Continuous
 62
     2
100
AcDbLine
 10
9.961918648712526
 20
4.543244441105004
 30
0.0
 11
9.961918648712526
 21
2.853244860721703
 31
0.0
  0
LINE
  5
31D
330
301
100
AcDbEntity
  8
LAYER002
  6
Continuous
 62
     2
100
AcDbLine
 10
9.251927193634429
 20
2.853244860721703
 30
0.0
 11
9.961918648712526
 21
2.853244860721703
 31
0.0
  0
LINE
  5
31E
330
301
100
AcDbEntity
  8
LAYER002
  6
Continuous
 62
     2
100
AcDbLine
 10
9.251927193634429
 20
5.019911845279803
 30
0.0
 11
9.251927193634429
 21
2.853244860721703
 31
0.0
  0
LINE
  5
31F
330
301
100
AcDbEntity
  8
LAYER002
  6
Continuous
 62
     2
100
AcDbLine
 10
8.656101998321929
 20
5.019911845279803
 30
0.0
 11
9.251927193634429
 21
5.019911845279803
 31
0.0
  0
LINE
  5
320
330
301
100
AcDbEntity
  8
LAYER002
  6
Continuous
 62
     2
100
AcDbLine
 10
9.366078194610935
 20
6.059910853458514
 30
0.0
 11
9.366078194610935
 21
5.253243525577664
 31
0.0
  0
LINE
  5
321
330
301
100
AcDbEntity
  8
LAYER002
  6
Continuous
 62
     2
100
AcDbLine
 10
9.366078194610935
 20
6.059910853458514
 30
0.0
 11
11.29942780398593
 21
6.059910853458514
 31
0.0
  0
LINE
  5
322
330
301
100
AcDbEntity
  8
LAYER002
  6
Continuous
 62
     2
100
AcDbLine
 10
11.29942780398593
 20
6.059910853458514
 30
0.0
 11
11.29942780398593
 21
5.253243525577662
 31
0.0
  0
LINE
  5
323
330
301
100
AcDbEntity
  8
LAYER002
  6
Continuous
 62
     2
100
AcDbLine
 10
11.2994278039859
 20
4.543244441105006
 30
0.0
 11
11.29942780398593
 21
2.419911463810084
 31
0.0
  0
LINE
  5
324
330
301
100
AcDbEntity
  8
LAYER002
  6
Continuous
 62
     2
100
AcDbLine
 10
12.00941925906412
 20
6.059910853458514
 30
0.0
 11
12.00941925906412
 21
5.253243525577664
 31
0.0
  0
LINE
  5
325
330
301
100
AcDbEntity
  8
LAYER002
  6
Continuous
 62
     2
100
AcDbLine
 10
12.00941925906412
 20
4.543244441105004
 30
0.0
 11
12.00941925906412
 21
2.419911463810084
 31
0.0
  0
LINE
  5
326
330
301
100
AcDbEntity
  8
LAYER002
  6
Continuous
 62
     2
100
AcDbLine
 10
12.00941925906412
 20
6.059910853458514
 30
0.0
 11
13.94276886843911
 21
6.059910853458514
 31
0.0
  0
LINE
  5
327
330
301
100
AcDbEntity
  8
LAYER002
  6
Continuous
 62
     2
100
AcDbLine
 10
13.94276886843911
 20
6.059910853458514
 30
0.0
 11
13.94276886843911
 21
5.253243525577664
 31
0.0
  0
LINE
  5
328
330
301
100
AcDbEntity
  8
LAYER002
  6
Continuous
 62
     2
100
AcDbLine
 10
9.366078194610935
 20
5.253243525577664
 30
0.0
 11
11.29942780398593
 21
5.253243525577662
 31
0.0
  0
LINE
  5
329
330
301
100
AcDbEntity
  8
LAYER002
  6
Continuous
 62
     2
100
AcDbLine
 10
12.00941925906412
 20
5.253243525577664
 30
0.0
 11
13.94276886843911
 21
5.253243525577664
 31
0.0
  0
LINE
  5
32A
330
301
100
AcDbEntity
  8
LAYER002
  6
Continuous
 62
     2
100
AcDbLine
 10
11.29942780398593
 20
2.419911463810084
 30
0.0
 11
12.00941925906412
 21
2.419911463810084
 31
0.0
  0
LINE
  5
32B
330
301
100
AcDbEntity
  8
LAYER002
  6
Continuous
 62
     2
100
AcDbLine
 10
17.76570588015784
 20
8.633244593692893
 30
0.0
 11
18.15442353152502
 21
8.633244593692893
 31
0.0
  0
LINE
  5
32C
330
301
100
AcDbEntity
  8
LAYER002
  6
Continuous
 62
     2
100
AcDbLine
 10
18.54314118289221
 20
8.633244593692893
 30
0.0
 11
18.15442353152502
 21
8.633244593692893
 31
0.0
  0
LINE
  5
32D
330
301
100
AcDbEntity
  8
LAYER002
  6
Continuous
 62
     2
100
AcDbLine
 10
21.25026284695244
 20
7.019580831317785
 30
0.0
 11
20.88229332905962
 21
6.382238942130054
 31
0.0
  0
LINE
  5
32E
330
301
100
AcDbEntity
  8
LAYER002
  6
Continuous
 62
     2
100
AcDbLine
 10
20.00441437625162
 20
6.703314860416522
 30
0.0
 11
20.00441437625162
 21
6.276578028751483
 31
0.0
  0
LINE
  5
32F
330
301
100
AcDbEntity
  8
LAYER002
  6
Continuous
 62
     2
100
AcDbLine
 10
20.00441437625162
 20
6.276578028751483
 30
0.0
 11
18.48775177859534
 21
6.276578028751483
 31
0.0
  0
LINE
  5
330
330
301
100
AcDbEntity
  8
LAYER002
  6
Continuous
 62
     2
100
AcDbLine
 10
18.48775177859534
 20
6.276578028751483
 30
0.0
 11
18.48775177859534
 21
5.686577876163593
 31
0.0
  0
LINE
  5
331
330
301
100
AcDbEntity
  8
LAYER002
  6
Continuous
 62
     2
100
AcDbLine
 10
20.97942047976721
 20
5.686577876163593
 30
0.0
 11
18.48775177859534
 21
5.686577876163593
 31
0.0
  0
LINE
  5
332
330
301
100
AcDbEntity
  8
LAYER002
  6
Continuous
 62
     2
100
AcDbLine
 10
20.97942047976721
 20
5.686577876163593
 30
0.0
 11
20.97942047976721
 21
4.976578791690943
 31
0.0
  0
LINE
  5
333
330
301
100
AcDbEntity
  8
LAYER002
  6
Continuous
 62
     2
100
AcDbLine
 10
20.97942047976721
 20
4.976578791690943
 30
0.0
 11
18.48775177859534
 21
4.976578791690943
 31
0.0
  0
LINE
  5
334
330
301
100
AcDbEntity
  8
LAYER002
  6
Continuous
 62
     2
100
AcDbLine
 10
18.48775177859534
 20
4.976578791690943
 30
0.0
 11
18.48775177859534
 21
3.454911311222193
 31
0.0
  0
LINE
  5
335
330
301
100
AcDbEntity
  8
LAYER002
  6
Continuous
 62
     2
100
AcDbLine
 10
19.08458405398593
 20
3.454911311222193
 30
0.0
 11
18.48775177859534
 21
3.454911311222193
 31
0.0
  0
LINE
  5
336
330
301
100
AcDbEntity
  8
LAYER002
  6
Continuous
 62
     2
100
AcDbLine
 10
19.48579138492133
 20
4.633270766030193
 30
0.0
 11
20.15682697862553
 21
4.380610583278384
 31
0.0
  0
LINE
  5
337
330
301
100
AcDbEntity
  8
LAYER002
  6
Continuous
 62
     2
100
AcDbLine
 10
21.13107758425943
 20
3.454911311222193
 30
0.0
 11
19.86105805300943
 21
3.454911311222193
 31
0.0
  0
LINE
  5
338
330
301
100
AcDbEntity
  8
LAYER002
  6
Continuous
 62
     2
100
AcDbLine
 10
21.13107758425943
 20
3.454911311222193
 30
0.0
 11
21.13107758425943
 21
2.744911273075214
 31
0.0
  0
LINE
  5
339
330
301
100
AcDbEntity
  8
LAYER002
  6
Continuous
 62
     2
100
AcDbLine
 10
21.13107758425943
 20
2.744911273075214
 30
0.0
 11
15.17776947879062
 21
2.744911273075214
 31
0.0
  0
LINE
  5
33A
330
301
100
AcDbEntity
  8
LAYER002
  6
Continuous
 62
     2
100
AcDbLine
 10
15.17776947879062
 20
3.454911311222193
 30
0.0
 11
15.17776947879062
 21
2.744911273075214
 31
0.0
  0
LINE
  5
33B
330
301
100
AcDbEntity
  8
LAYER002
  6
Continuous
 62
     2
100
AcDbLine
 10
15.17776947879062
 20
3.454911311222193
 30
0.0
 11
16.48286896609534
 21
3.454911311222193
 31
0.0
  0
LINE
  5
33C
330
301
100
AcDbEntity
  8
LAYER002
  6
Continuous
 62
     2
100
AcDbLine
 10
16.84674503968892
 20
4.642185030638914
 30
0.0
 11
16.18026479391074
 21
4.391240040121743
 31
0.0
  0
LINE
  5
33D
330
301
100
AcDbEntity
  8
LAYER002
  6
Continuous
 62
     2
100
AcDbLine
 10
17.20265656375161
 20
3.454911311222193
 30
0.0
 11
17.82109528445471
 21
3.454911311222193
 31
0.0
  0
LINE
  5
33E
330
301
100
AcDbEntity
  8
LAYER002
  6
Continuous
 62
     2
100
AcDbLine
 10
17.82109528445471
 20
4.976578791690943
 30
0.0
 11
17.82109528445471
 21
3.454911311222193
 31
0.0
  0
LINE
  5
33F
330
301
100
AcDbEntity
  8
LAYER002
  6
Continuous
 62
     2
100
AcDbLine
 10
15.32942658328284
 20
4.976578791690943
 30
0.0
 11
17.82109528445471
 21
4.976578791690943
 31
0.0
  0
LINE
  5
340
330
301
100
AcDbEntity
  8
LAYER002
  6
Continuous
 62
     2
100
AcDbLine
 10
15.32942658328284
 20
5.686577876163593
 30
0.0
 11
15.32942658328284
 21
4.976578791690943
 31
0.0
  0
LINE
  5
341
330
301
100
AcDbEntity
  8
LAYER002
  6
Continuous
 62
     2
100
AcDbLine
 10
15.32942658328284
 20
5.686577876163593
 30
0.0
 11
17.82109528445471
 21
5.686577876163593
 31
0.0
  0
LINE
  5
342
330
301
100
AcDbEntity
  8
LAYER002
  6
Continuous
 62
     2
100
AcDbLine
 10
17.82109528445471
 20
6.276578028751483
 30
0.0
 11
17.82109528445471
 21
5.686577876163593
 31
0.0
  0
LINE
  5
343
330
301
100
AcDbEntity
  8
LAYER002
  6
Continuous
 62
     2
100
AcDbLine
 10
16.30443268679843
 20
6.276578028751483
 30
0.0
 11
17.82109528445471
 21
6.276578028751483
 31
0.0
  0
LINE
  5
344
330
301
100
AcDbEntity
  8
LAYER002
  6
Continuous
 62
     2
100
AcDbLine
 10
16.30443268679843
 20
6.703314860416522
 30
0.0
 11
16.30443268679843
 21
6.276578028751483
 31
0.0
  0
LINE
  5
345
330
301
100
AcDbEntity
  8
LAYER002
  6
Continuous
 62
     2
100
AcDbLine
 10
15.05859039594301
 20
7.019580905823584
 30
0.0
 11
15.42655609913842
 21
6.382245623885324
 31
0.0
  0
LINE
  5
346
330
301
100
AcDbEntity
  8
LAYER002
  6
Continuous
 62
     2
100
AcDbLine
 10
16.85095673465002
 20
6.986577113224143
 30
0.0
 11
18.15442353152502
 21
6.986577113224143
 31
0.0
  0
LINE
  5
347
330
301
100
AcDbEntity
  8
LAYER002
  6
Continuous
 62
     2
100
AcDbLine
 10
19.45789032840002
 20
6.986577113224143
 30
0.0
 11
18.15442353152502
 21
6.986577113224143
 31
0.0
  0
LINE
  5
348
330
301
100
AcDbEntity
  8
LAYER002
  6
Continuous
 62
     2
100
AcDbLine
 10
21.61276703738443
 20
7.419911463810084
 30
0.0
 11
21.61276703738443
 21
6.709912379337424
 31
0.0
  0
LINE
  5
349
330
301
100
AcDbEntity
  8
LAYER002
  6
Continuous
 62
     2
100
AcDbLine
 10
21.61276703738443
 20
7.419911463810084
 30
0.0
 11
22.37109833621253
 21
7.419911463810084
 31
0.0
  0
LINE
  5
34A
330
301
100
AcDbEntity
  8
LAYER002
  6
Continuous
 62
     2
100
AcDbLine
 10
22.37109833621253
 20
8.719910700870624
 30
0.0
 11
22.37109833621253
 21
7.419911463810084
 31
0.0
  0
LINE
  5
34B
330
301
100
AcDbEntity
  8
LAYER002
  6
Continuous
 62
     2
100
AcDbLine
 10
22.37109833621253
 20
8.719910700870624
 30
0.0
 11
23.08108979129062
 21
8.719910700870624
 31
0.0
  0
LINE
  5
34C
330
301
100
AcDbEntity
  8
LAYER002
  6
Continuous
 62
     2
100
AcDbLine
 10
23.08108979129062
 20
8.719910700870624
 30
0.0
 11
23.08108979129062
 21
7.419911463810084
 31
0.0
  0
LINE
  5
34D
330
301
100
AcDbEntity
  8
LAYER002
  6
Continuous
 62
     2
100
AcDbLine
 10
23.08108979129062
 20
7.419911463810084
 30
0.0
 11
23.64441376590002
 21
7.419911463810084
 31
0.0
  0
LINE
  5
34E
330
301
100
AcDbEntity
  8
LAYER002
  6
Continuous
 62
     2
100
AcDbLine
 10
23.64441376590002
 20
7.419911463810084
 30
0.0
 11
23.64441376590002
 21
6.709912379337424
 31
0.0
  0
LINE
  5
34F
330
301
100
AcDbEntity
  8
LAYER002
  6
Continuous
 62
     2
100
AcDbLine
 10
24.35373171591962
 20
8.501619528013623
 30
0.0
 11
24.90773869542022
 21
8.308921450467465
 31
0.0
  0
LINE
  5
350
330
301
100
AcDbEntity
  8
LAYER002
  6
Continuous
 62
     2
100
AcDbLine
 10
24.80977326297034
 20
7.744910319400904
 30
0.0
 11
25.36110382937662
 21
7.744910319400904
 31
0.0
  0
LINE
  5
351
330
301
100
AcDbEntity
  8
LAYER002
  6
Continuous
 62
     2
100
AcDbLine
 10
25.36110382937662
 20
8.719910700870624
 30
0.0
 11
25.36110382937662
 21
7.744910319400904
 31
0.0
  0
LINE
  5
352
330
301
100
AcDbEntity
  8
LAYER002
  6
Continuous
 62
     2
100
AcDbLine
 10
25.36110382937662
 20
8.719910700870624
 30
0.0
 11
26.07108002566562
 21
8.719910700870624
 31
0.0
  0
LINE
  5
353
330
301
100
AcDbEntity
  8
LAYER002
  6
Continuous
 62
     2
100
AcDbLine
 10
26.07108002566562
 20
8.719910700870624
 30
0.0
 11
26.07108002566562
 21
7.744910319400904
 31
0.0
  0
LINE
  5
354
330
301
100
AcDbEntity
  8
LAYER002
  6
Continuous
 62
     2
100
AcDbLine
 10
26.07108002566562
 20
7.744910319400904
 30
0.0
 11
27.47942047976721
 21
7.744910319400904
 31
0.0
  0
LINE
  5
355
330
301
100
AcDbEntity
  8
LAYER002
  6
Continuous
 62
     2
100
AcDbLine
 10
27.47942047976721
 20
7.744910319400904
 30
0.0
 11
27.47942047976721
 21
7.034911234928244
 31
0.0
  0
LINE
  5
356
330
301
100
AcDbEntity
  8
LAYER002
  6
Continuous
 62
     2
100
AcDbLine
 10
26.07108002566562
 20
7.034911234928244
 30
0.0
 11
27.47942047976721
 21
7.034911234928244
 31
0.0
  0
LINE
  5
357
330
301
100
AcDbEntity
  8
LAYER002
  6
Continuous
 62
     2
100
AcDbLine
 10
26.07108002566562
 20
7.034911234928244
 30
0.0
 11
26.07108002566562
 21
6.249911387516135
 31
0.0
  0
LINE
  5
358
330
301
100
AcDbEntity
  8
LAYER002
  6
Continuous
 62
     2
100
AcDbLine
 10
26.07108002566562
 20
6.249911387516135
 30
0.0
 11
27.69608002566562
 21
6.249911387516135
 31
0.0
  0
LINE
  5
359
330
301
100
AcDbEntity
  8
LAYER002
  6
Continuous
 62
     2
100
AcDbLine
 10
27.69608002566562
 20
6.249911387516135
 30
0.0
 11
27.69608002566562
 21
5.539910395694843
 31
0.0
  0
LINE
  5
35A
330
301
100
AcDbEntity
  8
LAYER002
  6
Continuous
 62
     2
100
AcDbLine
 10
26.28844147586093
 20
5.539910395694843
 30
0.0
 11
27.69608002566562
 21
5.539910395694843
 31
0.0
  0
LINE
  5
35B
330
301
100
AcDbEntity
  8
LAYER002
  6
Continuous
 62
     2
100
AcDbLine
 10
27.32666521601132
 20
2.798693176931793
 30
0.0
 11
27.80873025926172
 21
3.487357502958914
 31
0.0
  0
LINE
  5
35C
330
301
100
AcDbEntity
  8
LAYER002
  6
Continuous
 62
     2
100
AcDbLine
 10
26.07108002566562
 20
4.861428340030784
 30
0.0
 11
26.07108002566562
 21
2.419911463810084
 31
0.0
  0
LINE
  5
35D
330
301
100
AcDbEntity
  8
LAYER002
  6
Continuous
 62
     2
100
AcDbLine
 10
25.36110382937662
 20
2.419911463810084
 30
0.0
 11
26.07108002566562
 21
2.419911463810084
 31
0.0
  0
LINE
  5
35E
330
301
100
AcDbEntity
  8
LAYER002
  6
Continuous
 62
     2
100
AcDbLine
 10
25.36110382937662
 20
4.809003909183614
 30
0.0
 11
25.36110382937662
 21
2.419911463810084
 31
0.0
  0
LINE
  5
35F
330
301
100
AcDbEntity
  8
LAYER002
  6
Continuous
 62
     2
100
AcDbLine
 10
23.57943107781912
 20
3.345927503673664
 30
0.0
 11
24.01392443773432
 21
2.794456004006544
 31
0.0
  0
LINE
  5
360
330
301
100
AcDbEntity
  8
LAYER002
  6
Continuous
 62
     2
100
AcDbLine
 10
24.04629975222813
 20
5.539910395694843
 30
0.0
 11
25.12740021609534
 21
5.539910395694843
 31
0.0
  0
LINE
  5
361
330
301
100
AcDbEntity
  8
LAYER002
  6
Continuous
 62
     2
100
AcDbLine
 10
24.01776581668122
 20
6.249911387516135
 30
0.0
 11
25.36110382937662
 21
6.249911387516135
 31
0.0
  0
LINE
  5
362
330
301
100
AcDbEntity
  8
LAYER002
  6
Continuous
 62
     2
100
AcDbLine
 10
25.36110382937662
 20
7.034911234928244
 30
0.0
 11
25.36110382937662
 21
6.249911387516135
 31
0.0
  0
LINE
  5
363
330
301
100
AcDbEntity
  8
LAYER002
  6
Continuous
 62
     2
100
AcDbLine
 10
24.55786591433753
 20
7.034911234928244
 30
0.0
 11
25.36110382937662
 21
7.034911234928244
 31
0.0
  0
LINE
  5
364
330
301
100
AcDbEntity
  8
LAYER002
  6
Continuous
 62
     2
100
AcDbLine
 10
23.70054853868771
 20
6.936621342449615
 30
0.0
 11
24.17063907131953
 21
6.380049568313975
 31
0.0
  0
LINE
  5
365
330
301
100
AcDbEntity
  8
LAYER002
  6
Continuous
 62
     2
100
AcDbLine
 10
24.01776581668122
 20
6.249911387516135
 30
0.0
 11
24.01776581668122
 21
5.539910395694843
 31
0.0
  0
LINE
  5
366
330
301
100
AcDbEntity
  8
LAYER002
  6
Continuous
 62
     2
100
AcDbLine
 10
23.07074433230622
 20
6.709912379337424
 30
0.0
 11
23.64441376590002
 21
6.709912379337424
 31
0.0
  0
LINE
  5
367
330
301
100
AcDbEntity
  8
LAYER002
  6
Continuous
 62
     2
100
AcDbLine
 10
23.55363632015852
 20
4.873510774103394
 30
0.0
 11
23.97696875115642
 21
5.446130858634433
 31
0.0
  0
LINE
  5
368
330
301
100
AcDbEntity
  8
LAYER002
  6
Continuous
 62
     2
100
AcDbLine
 10
23.08108979129062
 20
5.347888072086444
 30
0.0
 11
23.08108979129062
 21
2.419911463810084
 31
0.0
  0
LINE
  5
369
330
301
100
AcDbEntity
  8
LAYER002
  6
Continuous
 62
     2
100
AcDbLine
 10
22.37109833621253
 20
2.419911463810084
 30
0.0
 11
23.08108979129062
 21
2.419911463810084
 31
0.0
  0
LINE
  5
36A
330
301
100
AcDbEntity
  8
LAYER002
  6
Continuous
 62
     2
100
AcDbLine
 10
22.37109833621253
 20
5.097221453739283
 30
0.0
 11
22.37109833621253
 21
2.419911463810084
 31
0.0
  0
LINE
  5
36B
330
301
100
AcDbEntity
  8
LAYER002
  6
Continuous
 62
     2
100
AcDbLine
 10
21.41021984448781
 20
4.687218763746313
 30
0.0
 11
21.75196941911864
 21
3.832844813457484
 31
0.0
  0
LINE
  5
36C
330
301
100
AcDbEntity
  8
LAYER002
  6
Continuous
 62
     2
100
AcDbLine
 10
21.61276703738443
 20
6.709912379337424
 30
0.0
 11
22.35403901004062
 21
6.709912379337424
 31
0.0
  0
LINE
  5
36D
330
301
100
AcDbEntity
  8
LAYER002
  6
Continuous
 62
     2
100
AcDbLine
 10
28.13443451785312
 20
7.636578639103053
 30
0.0
 11
28.13443451785312
 21
6.926570017887232
 31
0.0
  0
LINE
  5
36E
330
301
100
AcDbEntity
  8
LAYER002
  6
Continuous
 62
     2
100
AcDbLine
 10
28.13443451785312
 20
7.636578639103053
 30
0.0
 11
31.64442902468912
 21
7.636578639103053
 31
0.0
  0
LINE
  5
36F
330
301
100
AcDbEntity
  8
LAYER002
  6
Continuous
 62
     2
100
AcDbLine
 10
31.64442902468912
 20
8.719910700870624
 30
0.0
 11
31.64442902468912
 21
7.636578639103053
 31
0.0
  0
LINE
  5
370
330
301
100
AcDbEntity
  8
LAYER002
  6
Continuous
 62
     2
100
AcDbLine
 10
31.64442902468912
 20
8.719910700870624
 30
0.0
 11
32.35442047976722
 21
8.719910700870624
 31
0.0
  0
LINE
  5
371
330
301
100
AcDbEntity
  8
LAYER002
  6
Continuous
 62
     2
100
AcDbLine
 10
32.35442047976722
 20
8.719910700870624
 30
0.0
 11
32.35442047976722
 21
7.636578639103053
 31
0.0
  0
LINE
  5
372
330
301
100
AcDbEntity
  8
LAYER002
  6
Continuous
 62
     2
100
AcDbLine
 10
32.35442047976722
 20
7.636578639103053
 30
0.0
 11
33.48213654422034
 21
7.636578639103053
 31
0.0
  0
LINE
  5
373
330
301
100
AcDbEntity
  8
LAYER002
  6
Continuous
 62
     2
100
AcDbLine
 10
33.12702463587434
 20
8.170331002643095
 30
0.0
 11
33.77362970972402
 21
8.413047169943425
 31
0.0
  0
LINE
  5
374
330
301
100
AcDbEntity
  8
LAYER002
  6
Continuous
 62
     2
100
AcDbLine
 10
34.04442931010593
 20
7.361595183553205
 30
0.0
 11
34.27911168098731
 21
7.449687912634573
 31
0.0
  0
LINE
  5
375
330
301
100
AcDbEntity
  8
LAYER002
  6
Continuous
 62
     2
100
AcDbLine
 10
34.04442292117344
 20
7.361596186710475
 30
0.0
 11
34.04442292117344
 21
6.926577647281764
 31
0.0
  0
LINE
  5
376
330
301
100
AcDbEntity
  8
LAYER002
  6
Continuous
 62
     2
100
AcDbLine
 10
32.36932831668122
 20
6.926577647281764
 30
0.0
 11
34.04442292117344
 21
6.926577647281764
 31
0.0
  0
LINE
  5
377
330
301
100
AcDbEntity
  8
LAYER002
  6
Continuous
 62
     2
100
AcDbLine
 10
33.69185974575942
 20
4.373218815989213
 30
0.0
 11
33.50204561430192
 21
3.641707046298964
 31
0.0
  0
LINE
  5
378
330
301
100
AcDbEntity
  8
LAYER002
  6
Continuous
 62
     2
100
AcDbLine
 10
33.69186772820254
 20
4.373223762917273
 30
0.0
 11
34.28976095420873
 21
3.604503859447394
 31
0.0
  0
LINE
  5
379
330
301
100
AcDbEntity
  8
LAYER002
  6
Continuous
 62
     2
100
AcDbLine
 10
34.28976149218732
 20
3.604496860428174
 30
0.0
 11
34.00093859744024
 21
2.908811173057953
 31
0.0
  0
LINE
  5
37A
330
301
100
AcDbEntity
  8
LAYER002
  6
Continuous
 62
     2
100
AcDbLine
 10
28.13443451785312
 20
6.926570017887232
 30
0.0
 11
31.67149811648594
 21
6.926570017887232
 31
0.0
  0
LINE
  5
37B
330
301
100
AcDbEntity
  8
LAYER002
  6
Continuous
 62
     2
100
AcDbLine
 10
31.27109223269693
 20
6.011584361148944
 30
0.0
 11
31.27109223269693
 21
5.301570017887234
 31
0.0
  0
LINE
  5
37C
330
301
100
AcDbEntity
  8
LAYER002
  6
Continuous
 62
     2
100
AcDbLine
 10
28.37274628543122
 20
6.011584361148944
 30
0.0
 11
31.27109223269693
 21
6.011584361148944
 31
0.0
  0
LINE
  5
37D
330
301
100
AcDbEntity
  8
LAYER002
  6
Continuous
 62
     2
100
AcDbLine
 10
28.37274628543122
 20
6.011584361148944
 30
0.0
 11
28.37274628543122
 21
5.301570017887234
 31
0.0
  0
LINE
  5
37E
330
301
100
AcDbEntity
  8
LAYER002
  6
Continuous
 62
     2
100
AcDbLine
 10
28.37274628543122
 20
5.301570017887234
 30
0.0
 11
29.52107697390784
 21
5.301570017887234
 31
0.0
  0
LINE
  5
37F
330
301
100
AcDbEntity
  8
LAYER002
  6
Continuous
 62
     2
100
AcDbLine
 10
29.52107697390784
 20
5.301570017887234
 30
0.0
 11
29.52107697390784
 21
3.601983149601094
 31
0.0
  0
LINE
  5
380
330
301
100
AcDbEntity
  8
LAYER002
  6
Continuous
 62
     2
100
AcDbLine
 10
28.15881339961033
 20
3.532072754738983
 30
0.0
 11
28.24152881482272
 21
2.839331158182814
 31
0.0
  0
LINE
  5
381
330
301
100
AcDbEntity
  8
LAYER002
  6
Continuous
 62
     2
100
AcDbLine
 10
28.24152881482272
 20
2.839331158182814
 30
0.0
 11
31.52974084570062
 21
3.231953493542224
 31
0.0
  0
LINE
  5
382
330
301
100
AcDbEntity
  8
LAYER002
  6
Continuous
 62
     2
100
AcDbLine
 10
31.52974396609534
 20
3.932950099063983
 30
0.0
 11
31.52974396609534
 21
3.231951792789574
 31
0.0
  0
LINE
  5
383
330
301
100
AcDbEntity
  8
LAYER002
  6
Continuous
 62
     2
100
AcDbLine
 10
30.23109894656412
 20
5.301570017887234
 30
0.0
 11
30.23109894656412
 21
3.687426646305194
 31
0.0
  0
LINE
  5
384
330
301
100
AcDbEntity
  8
LAYER002
  6
Continuous
 62
     2
100
AcDbLine
 10
30.23109894656412
 20
5.301570017887234
 30
0.0
 11
31.27109223269693
 21
5.301570017887234
 31
0.0
  0
LINE
  5
385
330
301
100
AcDbEntity
  8
LAYER002
  6
Continuous
 62
     2
100
AcDbLine
 10
38.91008470081542
 20
4.653855842389415
 30
0.0
 11
38.33028633727642
 21
4.222681227319924
 31
0.0
  0
LINE
  5
386
330
301
100
AcDbEntity
  8
LAYER002
  6
Continuous
 62
     2
100
AcDbLine
 10
39.95502782748872
 20
2.527657455404254
 30
0.0
 11
40.53058096608504
 21
2.946241571626543
 31
0.0
  0
LINE
  5
387
330
301
100
AcDbEntity
  8
LAYER002
  6
Continuous
 62
     2
100
AcDbLine
 10
35.07588470769892
 20
2.753648077135373
 30
0.0
 11
39.58583815442342
 21
2.953374208576494
 31
0.0
  0
LINE
  5
388
330
301
100
AcDbEntity
  8
LAYER002
  6
Continuous
 62
     2
100
AcDbLine
 10
34.94297562986754
 20
3.459126452382934
 30
0.0
 11
35.07589139985413
 21
2.753650439985404
 31
0.0
  0
LINE
  5
389
330
301
100
AcDbEntity
  8
LAYER002
  6
Continuous
 62
     2
100
AcDbLine
 10
34.94296378016802
 20
3.459123218295754
 30
0.0
 11
35.97222979488902
 21
3.477731053058374
 31
0.0
  0
LINE
  5
38A
330
301
100
AcDbEntity
  8
LAYER002
  6
Continuous
 62
     2
100
AcDbLine
 10
36.69504115191472
 20
4.976573471637184
 30
0.0
 11
35.97223704629974
 21
3.477730160155264
 31
0.0
  0
LINE
  5
38B
330
301
100
AcDbEntity
  8
LAYER002
  6
Continuous
 62
     2
100
AcDbLine
 10
34.82942658328284
 20
4.976578791690943
 30
0.0
 11
36.69504242800943
 21
4.976578791690943
 31
0.0
  0
LINE
  5
38C
330
301
100
AcDbEntity
  8
LAYER002
  6
Continuous
 62
     2
100
AcDbLine
 10
34.82942658328284
 20
5.686577876163593
 30
0.0
 11
34.82942658328284
 21
4.976578791690943
 31
0.0
  0
LINE
  5
38D
330
301
100
AcDbEntity
  8
LAYER002
  6
Continuous
 62
     2
100
AcDbLine
 10
34.82942658328284
 20
5.686577876163593
 30
0.0
 11
40.47942047976721
 21
5.686577876163593
 31
0.0
  0
LINE
  5
38E
330
301
100
AcDbEntity
  8
LAYER002
  6
Continuous
 62
     2
100
AcDbLine
 10
40.47942047976721
 20
5.686577876163593
 30
0.0
 11
40.47942047976721
 21
4.976578791690943
 31
0.0
  0
LINE
  5
38F
330
301
100
AcDbEntity
  8
LAYER002
  6
Continuous
 62
     2
100
AcDbLine
 10
37.48328095340003
 20
4.976578791690943
 30
0.0
 11
40.47942047976721
 21
4.976578791690943
 31
0.0
  0
LINE
  5
390
330
301
100
AcDbEntity
  8
LAYER002
  6
Continuous
 62
     2
100
AcDbLine
 10
37.48327977432623
 20
4.976577781742545
 30
0.0
 11
36.76740853280524
 21
3.492110809431855
 31
0.0
  0
LINE
  5
391
330
301
100
AcDbEntity
  8
LAYER002
  6
Continuous
 62
     2
100
AcDbLine
 10
36.76741845892653
 20
3.492107063782414
 30
0.0
 11
39.04315437559274
 21
3.533249506353154
 31
0.0
  0
LINE
  5
392
330
301
100
AcDbEntity
  8
LAYER002
  6
Continuous
 62
     2
100
AcDbLine
 10
35.80443268679843
 20
6.276578028751483
 30
0.0
 11
39.50441437625162
 21
6.276578028751483
 31
0.0
  0
LINE
  5
393
330
301
100
AcDbEntity
  8
LAYER002
  6
Continuous
 62
     2
100
AcDbLine
 10
39.50441437625162
 20
6.703314860416522
 30
0.0
 11
39.50441437625162
 21
6.276578028751483
 31
0.0
  0
LINE
  5
394
330
301
100
AcDbEntity
  8
LAYER002
  6
Continuous
 62
     2
100
AcDbLine
 10
40.75026421046231
 20
7.019579892544612
 30
0.0
 11
40.38229469256961
 21
6.382238003356892
 31
0.0
  0
LINE
  5
395
330
301
100
AcDbEntity
  8
LAYER002
  6
Continuous
 62
     2
100
AcDbLine
 10
37.26570588015784
 20
8.633244593692893
 30
0.0
 11
38.04314118289222
 21
8.633244593692893
 31
0.0
  0
LINE
  5
396
330
301
100
AcDbEntity
  8
LAYER002
  6
Continuous
 62
     2
100
AcDbLine
 10
34.55859175945292
 20
7.019581844596753
 30
0.0
 11
34.92656127734563
 21
6.382239955409044
 31
0.0
  0
LINE
  5
397
330
301
100
AcDbEntity
  8
LAYER002
  6
Continuous
 62
     2
100
AcDbLine
 10
35.80443268679843
 20
6.703314860416522
 30
0.0
 11
35.80443268679843
 21
6.276578028751483
 31
0.0
  0
LINE
  5
398
330
301
100
AcDbEntity
  8
LAYER002
  6
Continuous
 62
     2
100
AcDbLine
 10
36.35095673465003
 20
6.986577113224143
 30
0.0
 11
38.95789032840003
 21
6.986577113224143
 31
0.0
  0
LINE
  5
399
330
301
100
AcDbEntity
  8
LAYER002
  6
Continuous
 62
     2
100
AcDbLine
 10
42.15276032351721
 20
8.719910700870624
 30
0.0
 11
42.15276032351721
 21
7.593253214908713
 31
0.0
  0
LINE
  5
39A
330
301
100
AcDbEntity
  8
LAYER002
  6
Continuous
 62
     2
100
AcDbLine
 10
42.15276032351721
 20
8.719910700870624
 30
0.0
 11
42.86275177859534
 21
8.719910700870624
 31
0.0
  0
LINE
  5
39B
330
301
100
AcDbEntity
  8
LAYER002
  6
Continuous
 62
     2
100
AcDbLine
 10
42.86275177859534
 20
8.719910700870624
 30
0.0
 11
42.86275177859534
 21
7.593243678165553
 31
0.0
  0
LINE
  5
39C
330
301
100
AcDbEntity
  8
LAYER002
  6
Continuous
 62
     2
100
AcDbLine
 10
42.86275177859534
 20
7.593243678165553
 30
0.0
 11
43.66441803836093
 21
7.593243678165553
 31
0.0
  0
LINE
  5
39D
330
301
100
AcDbEntity
  8
LAYER002
  6
Continuous
 62
     2
100
AcDbLine
 10
43.66441803836093
 20
7.593243678165553
 30
0.0
 11
43.66441803836093
 21
6.808674891544455
 31
0.0
  0
LINE
  5
39E
330
301
100
AcDbEntity
  8
LAYER002
  6
Continuous
 62
     2
100
AcDbLine
 10
43.61242992699522
 20
4.364841906533374
 30
0.0
 11
44.03675870187052
 21
4.937369944705285
 31
0.0
  0
LINE
  5
39F
330
301
100
AcDbEntity
  8
LAYER002
  6
Continuous
 62
     2
100
AcDbLine
 10
42.86275177859534
 20
5.109614451480984
 30
0.0
 11
42.86275177859534
 21
2.419911463810084
 31
0.0
  0
LINE
  5
3A0
330
301
100
AcDbEntity
  8
LAYER002
  6
Continuous
 62
     2
100
AcDbLine
 10
42.15276032351721
 20
2.419911463810084
 30
0.0
 11
42.86275177859534
 21
2.419911463810084
 31
0.0
  0
LINE
  5
3A1
330
301
100
AcDbEntity
  8
LAYER002
  6
Continuous
 62
     2
100
AcDbLine
 10
42.15276032351721
 20
4.687500079227564
 30
0.0
 11
42.15276032351721
 21
2.419911463810084
 31
0.0
  0
LINE
  5
3A2
330
301
100
AcDbEntity
  8
LAYER002
  6
Continuous
 62
     2
100
AcDbLine
 10
41.03084204469783
 20
4.666819339827513
 30
0.0
 11
41.37283121607782
 21
3.914443177569683
 31
0.0
  0
LINE
  5
3A3
330
301
100
AcDbEntity
  8
LAYER002
  6
Continuous
 62
     2
100
AcDbLine
 10
42.86275994464571
 20
5.109612376806044
 30
0.0
 11
43.39357532810831
 21
4.558380988986964
 31
0.0
  0
LINE
  5
3A4
330
301
100
AcDbEntity
  8
LAYER002
  6
Continuous
 62
     2
100
AcDbLine
 10
41.17775422000161
 20
6.883235056949732
 30
0.0
 11
43.02241974734534
 21
6.883235056949732
 31
0.0
  0
LINE
  5
3A5
330
301
100
AcDbEntity
  8
LAYER002
  6
Continuous
 62
     2
100
AcDbLine
 10
41.17775422000161
 20
7.593253214908713
 30
0.0
 11
41.17775422000161
 21
6.883235056949732
 31
0.0
  0
LINE
  5
3A6
330
301
100
AcDbEntity
  8
LAYER002
  6
Continuous
 62
     2
100
AcDbLine
 10
41.17775422000161
 20
7.593253214908713
 30
0.0
 11
42.15276032351721
 21
7.593253214908713
 31
0.0
  0
LINE
  5
3A7
330
301
100
AcDbEntity
  8
LAYER002
  6
Continuous
 62
     2
100
AcDbLine
 10
44.08107453250162
 20
7.094920237613795
 30
0.0
 11
44.08107453250162
 21
6.384902079654803
 31
0.0
  0
LINE
  5
3A8
330
301
100
AcDbEntity
  8
LAYER002
  6
Continuous
 62
     2
100
AcDbLine
 10
44.08107453250162
 20
7.094920237613795
 30
0.0
 11
45.18608551882971
 21
7.094920237613795
 31
0.0
  0
LINE
  5
3A9
330
301
100
AcDbEntity
  8
LAYER002
  6
Continuous
 62
     2
100
AcDbLine
 10
45.18608551882971
 20
8.611586649967303
 30
0.0
 11
45.18608551882971
 21
7.094920237613795
 31
0.0
  0
LINE
  5
3AA
330
301
100
AcDbEntity
  8
LAYER002
  6
Continuous
 62
     2
100
AcDbLine
 10
45.18608551882971
 20
8.611586649967303
 30
0.0
 11
45.89609223269692
 21
8.611586649967303
 31
0.0
  0
LINE
  5
3AB
330
301
100
AcDbEntity
  8
LAYER002
  6
Continuous
 62
     2
100
AcDbLine
 10
45.89609223269692
 20
8.611586649967303
 30
0.0
 11
45.89609223269692
 21
7.094920237613795
 31
0.0
  0
LINE
  5
3AC
330
301
100
AcDbEntity
  8
LAYER002
  6
Continuous
 62
     2
100
AcDbLine
 10
45.89609223269692
 20
7.094920237613795
 30
0.0
 11
47.13109284304843
 21
7.094920237613795
 31
0.0
  0
LINE
  5
3AD
330
301
100
AcDbEntity
  8
LAYER002
  6
Continuous
 62
     2
100
AcDbLine
 10
47.13109284304843
 20
7.094920237613795
 30
0.0
 11
47.13109284304843
 21
6.384902079654803
 31
0.0
  0
LINE
  5
3AE
330
301
100
AcDbEntity
  8
LAYER002
  6
Continuous
 62
     2
100
AcDbLine
 10
45.89609223269692
 20
6.384902079654803
 30
0.0
 11
47.13109284304843
 21
6.384902079654803
 31
0.0
  0
LINE
  5
3AF
330
301
100
AcDbEntity
  8
LAYER002
  6
Continuous
 62
     2
100
AcDbLine
 10
45.89609223269692
 20
6.384902079654803
 30
0.0
 11
45.89609223269692
 21
3.433253367496604
 31
0.0
  0
LINE
  5
3B0
330
301
100
AcDbEntity
  8
LAYER002
  6
Continuous
 62
     2
100
AcDbLine
 10
45.89609223269692
 20
3.433253367496604
 30
0.0
 11
47.26109772586093
 21
3.433253367496604
 31
0.0
  0
LINE
  5
3B1
330
301
100
AcDbEntity
  8
LAYER002
  6
Continuous
 62
     2
100
AcDbLine
 10
47.26109772586093
 20
3.433253367496604
 30
0.0
 11
47.26109772586093
 21
2.723235209537623
 31
0.0
  0
LINE
  5
3B2
330
301
100
AcDbEntity
  8
LAYER002
  6
Continuous
 62
     2
100
AcDbLine
 10
43.64774018191562
 20
2.723235209537623
 30
0.0
 11
47.26109772586093
 21
2.723235209537623
 31
0.0
  0
LINE
  5
3B3
330
301
100
AcDbEntity
  8
LAYER002
  6
Continuous
 62
     2
100
AcDbLine
 10
43.64774018191562
 20
3.433253367496604
 30
0.0
 11
43.64774018191562
 21
2.723235209537623
 31
0.0
  0
LINE
  5
3B4
330
301
100
AcDbEntity
  8
LAYER002
  6
Continuous
 62
     2
100
AcDbLine
 10
43.64774018191562
 20
3.433253367496604
 30
0.0
 11
45.18608551882971
 21
3.433253367496604
 31
0.0
  0
LINE
  5
3B5
330
301
100
AcDbEntity
  8
LAYER002
  6
Continuous
 62
     2
100
AcDbLine
 10
45.18608551882971
 20
6.384902079654803
 30
0.0
 11
45.18608551882971
 21
3.433253367496604
 31
0.0
  0
LINE
  5
3B6
330
301
100
AcDbEntity
  8
LAYER002
  6
Continuous
 62
     2
100
AcDbLine
 10
44.08107453250162
 20
6.384902079654803
 30
0.0
 11
45.18608551882971
 21
6.384902079654803
 31
0.0
  0
ARC
  5
3B7
330
301
100
AcDbEntity
  8
LAYER002
  6
Continuous
 62
     2
100
AcDbCircle
 10
13.50691681765784
 20
3.403245051456563
 30
0.0
 40
0.5499999523162842
100
AcDbArc
 50
269.9999974955215
 51
0.0
  0
ARC
  5
3B8
330
301
100
AcDbEntity
  8
LAYER002
  6
Continuous
 62
     2
100
AcDbCircle
 10
13.13858490847812
 20
3.771577914310574
 30
0.0
 40
0.2083333283662796
100
AcDbArc
 50
269.9999974955215
 51
0.0
  0
ARC
  5
3B9
330
301
100
AcDbEntity
  8
LAYER002
  6
Continuous
 62
     2
100
AcDbCircle
 10
22.52634125613443
 20
12.23795994098293
 30
0.0
 40
5.372136116027832
100
AcDbArc
 50
222.1444614909359
 51
256.2588863195073
  0
ARC
  5
3BA
330
301
100
AcDbEntity
  8
LAYER002
  6
Continuous
 62
     2
100
AcDbCircle
 10
22.52634125613443
 20
12.23795994098293
 30
0.0
 40
6.082136154174804
100
AcDbArc
 50
245.5031073957324
 51
254.3174801800118
  0
ARC
  5
3BB
330
301
100
AcDbEntity
  8
LAYER002
  6
Continuous
 62
     2
100
AcDbCircle
 10
14.28349762820471
 20
5.747054179264186
 30
0.0
 40
5.320183277130126
100
AcDbArc
 50
334.4791825813554
 51
347.9156954949183
  0
ARC
  5
3BC
330
301
100
AcDbEntity
  8
LAYER002
  6
Continuous
 62
     2
100
AcDbCircle
 10
14.28349762820471
 20
5.747054179264186
 30
0.0
 40
6.030182838439941
100
AcDbArc
 50
337.6594040362786
 51
346.9029807853597
  0
ARC
  5
3BD
330
301
100
AcDbEntity
  8
LAYER002
  6
Continuous
 62
     2
100
AcDbCircle
 10
12.81358796023593
 20
2.786131938053244
 30
0.0
 40
3.729733943939208
100
AcDbArc
 50
10.32958963371841
 51
25.49006619945446
  0
ARC
  5
3BE
330
301
100
AcDbEntity
  8
LAYER002
  6
Continuous
 62
     2
100
AcDbCircle
 10
12.81358796023593
 20
2.786131938053244
 30
0.0
 40
4.439733982086181
100
AcDbArc
 50
8.663732962135213
 51
24.711805417119
  0
ARC
  5
3BF
330
301
100
AcDbEntity
  8
LAYER002
  6
Continuous
 62
     2
100
AcDbCircle
 10
13.78250580691562
 20
12.23795994098293
 30
0.0
 40
6.082136154174804
100
AcDbArc
 50
285.6825762827356
 51
294.4968944255018
  0
ARC
  5
3C0
330
301
100
AcDbEntity
  8
LAYER002
  6
Continuous
 62
     2
100
AcDbCircle
 10
13.78250580691562
 20
12.23795994098293
 30
0.0
 40
5.372136116027832
100
AcDbArc
 50
283.7411769734292
 51
317.8555403302988
  0
ARC
  5
3C1
330
301
100
AcDbEntity
  8
LAYER002
  6
Continuous
 62
     2
100
AcDbCircle
 10
22.52634125613443
 20
12.23795994098293
 30
0.0
 40
6.082136154174804
100
AcDbArc
 50
224.0434453254956
 51
239.7017359600208
  0
ARC
  5
3C2
330
301
100
AcDbEntity
  8
LAYER002
  6
Continuous
 62
     2
100
AcDbCircle
 10
13.78250580691562
 20
12.23795994098293
 30
0.0
 40
6.082136154174804
100
AcDbArc
 50
300.2982590310246
 51
315.9565564957384
  0
ARC
  5
3C3
330
301
100
AcDbEntity
  8
LAYER002
  6
Continuous
 62
     2
100
AcDbCircle
 10
21.16273957156412
 20
8.914637644840354
 30
0.0
 40
3.217607975006103
100
AcDbArc
 50
322.0663758592737
 51
352.625044333298
  0
ARC
  5
3C4
330
301
100
AcDbEntity
  8
LAYER002
  6
Continuous
 62
     2
100
AcDbCircle
 10
20.99936371707193
 20
8.697199900699732
 30
0.0
 40
3.927608013153076
100
AcDbArc
 50
345.9682019493255
 51
354.3265528848011
  0
ARC
  5
3C5
330
301
100
AcDbEntity
  8
LAYER002
  6
Continuous
 62
     2
100
AcDbCircle
 10
30.29213410281412
 20
6.916077693058124
 30
0.0
 40
4.233608722686767
100
AcDbArc
 50
198.9690832219489
 51
234.0844654431962
  0
ARC
  5
3C6
330
301
100
AcDbEntity
  8
LAYER002
  6
Continuous
 62
     2
100
AcDbCircle
 10
30.92395478152503
 20
6.401846964908713
 30
0.0
 40
5.091485500335693
100
AcDbArc
 50
197.6107088601952
 51
225.0467318126794
  0
ARC
  5
3C7
330
301
100
AcDbEntity
  8
LAYER002
  6
Continuous
 62
     2
100
AcDbCircle
 10
19.60806733035312
 20
7.198464472843284
 30
0.0
 40
6.229516983032226
100
AcDbArc
 50
315.0119652391877
 51
337.4449600020024
  0
ARC
  5
3C8
330
301
100
AcDbEntity
  8
LAYER002
  6
Continuous
 62
     2
100
AcDbCircle
 10
19.97888642215002
 20
7.529360850406764
 30
0.0
 40
5.519516944885253
100
AcDbArc
 50
310.7174394023128
 51
338.8728230008243
  0
ARC
  5
3C9
330
301
100
AcDbEntity
  8
LAYER002
  6
Continuous
 62
     2
100
AcDbCircle
 10
20.99936371707193
 20
8.697199900699732
 30
0.0
 40
3.927608013153076
100
AcDbArc
 50
323.8455240248456
 51
334.9611992763674
  0
ARC
  5
3CA
330
301
100
AcDbEntity
  8
LAYER002
  6
Continuous
 62
     2
100
AcDbCircle
 10
26.25305634402503
 20
8.035048564029803
 30
0.0
 40
3.447182178497314
100
AcDbArc
 50
202.6072108041131
 51
228.6792723001023
  0
ARC
  5
3CB
330
301
100
AcDbEntity
  8
LAYER002
  6
Continuous
 62
     2
100
AcDbCircle
 10
26.25305634402503
 20
8.035048564029803
 30
0.0
 40
4.157182216644287
100
AcDbArc
 50
220.2699570543613
 51
229.5083479823146
  0
ARC
  5
3CC
330
301
100
AcDbEntity
  8
LAYER002
  6
Continuous
 62
     2
100
AcDbCircle
 10
16.81911164187662
 20
7.032088358951686
 30
0.0
 40
5.879472732543945
100
AcDbArc
 50
327.0342114992449
 51
340.7865378458767
  0
ARC
  5
3CD
330
301
100
AcDbEntity
  8
LAYER002
  6
Continuous
 62
     2
100
AcDbCircle
 10
17.30801850222812
 20
7.832917292667502
 30
0.0
 40
5.169472694396972
100
AcDbArc
 50
322.5178001369925
 51
347.4531482541359
  0
ARC
  5
3CE
330
301
100
AcDbEntity
  8
LAYER002
  6
Continuous
 62
     2
100
AcDbCircle
 10
30.80913239382971
 20
6.243247111393085
 30
0.0
 40
3.014348506927489
100
AcDbArc
 50
27.53130409140616
 51
39.73991206296702
  0
ARC
  5
3CF
330
301
100
AcDbEntity
  8
LAYER002
  6
Continuous
 62
     2
100
AcDbCircle
 10
30.80913239382971
 20
6.243247111393085
 30
0.0
 40
3.67372441291809
100
AcDbArc
 50
19.17154016054552
 51
36.20145060117149
  0
ARC
  5
3D0
330
301
100
AcDbEntity
  8
LAYER002
  6
Continuous
 62
     2
100
AcDbCircle
 10
45.46216278933752
 20
7.791297038150904
 30
0.0
 40
13.12135219573975
100
AcDbArc
 50
183.7786332248138
 51
198.5130041703103
  0
ARC
  5
3D1
330
301
100
AcDbEntity
  8
LAYER002
  6
Continuous
 62
     2
100
AcDbCircle
 10
33.25845795535312
 20
3.704913218570824
 30
0.0
 40
0.2516608834266663
100
AcDbArc
 50
198.51300417031
 51
345.4535873227269
  0
ARC
  5
3D2
330
301
100
AcDbEntity
  8
LAYER002
  6
Continuous
 62
     2
100
AcDbCircle
 10
33.26858979129062
 20
3.212852557254905
 30
0.0
 40
0.7929474711418152
100
AcDbArc
 50
200.5801609226152
 51
337.4535882384713
  0
ARC
  5
3D3
330
301
100
AcDbEntity
  8
LAYER002
  6
Continuous
 62
     2
100
AcDbCircle
 10
45.46216278933752
 20
7.791297038150904
 30
0.0
 40
13.81774616241455
100
AcDbArc
 50
183.5879616639438
 51
200.580160922615
  0
ARC
  5
3D4
330
301
100
AcDbEntity
  8
LAYER002
  6
Continuous
 62
     2
100
AcDbCircle
 10
28.06259613894693
 20
18.71447094256984
 30
0.0
 40
15.18270206451416
100
AcDbArc
 50
270.3631108423682
 51
275.512458759533
  0
ARC
  5
3D5
330
301
100
AcDbEntity
  8
LAYER002
  6
Continuous
 62
     2
100
AcDbCircle
 10
28.06259613894693
 20
18.71447094256984
 30
0.0
 40
15.18270206451416
100
AcDbArc
 50
278.2114694817656
 51
283.2006289723249
  0
ARC
  5
3D6
330
301
100
AcDbEntity
  8
LAYER002
  6
Continuous
 62
     2
100
AcDbCircle
 10
26.23299103640784
 20
-8.999166886257057
 30
0.0
 40
18.63099098205566
100
AcDbArc
 50
39.87824388422735
 51
47.1227215934419
  0
ARC
  5
3D7
330
301
100
AcDbEntity
  8
LAYER002
  6
Continuous
 62
     2
100
AcDbCircle
 10
26.23299103640784
 20
-8.999166886257057
 30
0.0
 40
17.92099189758301
100
AcDbArc
 50
44.37206781089346
 51
47.54314705761221
  0
ARC
  5
3D8
330
301
100
AcDbEntity
  8
LAYER002
  6
Continuous
 62
     2
100
AcDbCircle
 10
26.23299103640784
 20
-8.999166886257057
 30
0.0
 40
17.92099189758301
100
AcDbArc
 50
40.03105229143296
 51
41.83268202465821
  0
ARC
  5
3D9
330
301
100
AcDbEntity
  8
LAYER002
  6
Continuous
 62
     2
100
AcDbCircle
 10
42.02634125613442
 20
12.23795994098293
 30
0.0
 40
6.082136154174804
100
AcDbArc
 50
245.5031073957324
 51
254.31749384039
  0
ARC
  5
3DA
330
301
100
AcDbEntity
  8
LAYER002
  6
Continuous
 62
     2
100
AcDbCircle
 10
42.02634125613442
 20
12.23795994098293
 30
0.0
 40
5.372136116027832
100
AcDbArc
 50
222.1444614909359
 51
256.2588999798852
  0
ARC
  5
3DB
330
301
100
AcDbEntity
  8
LAYER002
  6
Continuous
 62
     2
100
AcDbCircle
 10
33.28250580691562
 20
12.23795994098293
 30
0.0
 40
5.372136116027832
100
AcDbArc
 50
283.7411906338083
 51
317.8555403302988
  0
ARC
  5
3DC
330
301
100
AcDbEntity
  8
LAYER002
  6
Continuous
 62
     2
100
AcDbCircle
 10
33.28250580691562
 20
12.23795994098293
 30
0.0
 40
6.082136154174804
100
AcDbArc
 50
285.6825899431134
 51
294.4968944255018
  0
ARC
  5
3DD
330
301
100
AcDbEntity
  8
LAYER002
  6
Continuous
 62
     2
100
AcDbCircle
 10
42.02634125613442
 20
12.23795994098293
 30
0.0
 40
6.082136154174804
100
AcDbArc
 50
224.0434453254956
 51
239.7017359600208
  0
ARC
  5
3DE
330
301
100
AcDbEntity
  8
LAYER002
  6
Continuous
 62
     2
100
AcDbCircle
 10
33.28250580691562
 20
12.23795994098293
 30
0.0
 40
6.082136154174804
100
AcDbArc
 50
300.2982590310246
 51
315.9565564957384
  0
ARC
  5
3DF
330
301
100
AcDbEntity
  8
LAYER002
  6
Continuous
 62
     2
100
AcDbCircle
 10
34.12128144168122
 20
12.01042087848293
 30
0.0
 40
10.86874961853027
100
AcDbArc
 50
325.4612838201877
 51
331.4062258322538
  0
ARC
  5
3E0
330
301
100
AcDbEntity
  8
LAYER002
  6
Continuous
 62
     2
100
AcDbCircle
 10
45.70247345828284
 20
7.661210139347193
 30
0.0
 40
3.192793846130371
100
AcDbArc
 50
214.5991241940663
 51
238.5529937642723
  0
ARC
  5
3E1
330
301
100
AcDbEntity
  8
LAYER002
  6
Continuous
 62
     2
100
AcDbCircle
 10
44.70763092898593
 20
5.823775370670436
 30
0.0
 40
1.824270844459533
100
AcDbArc
 50
223.9190675807108
 51
233.1051392596223
  0
ARC
  5
3E2
330
301
100
AcDbEntity
  8
LAYER002
  6
Continuous
 62
     2
100
AcDbCircle
 10
34.12128144168122
 20
12.01042087848293
 30
0.0
 40
10.86874961853027
100
AcDbArc
 50
311.8507112195895
 51
317.6421276545865
  0
ARC
  5
3E3
330
301
100
AcDbEntity
  8
LAYER002
  6
Continuous
 62
     2
100
AcDbCircle
 10
37.66595917605622
 20
9.693362315250514
 30
0.0
 40
6.048844814300537
100
AcDbArc
 50
303.7992056788037
 51
332.3174413694252
  0
MTEXT
  5
3E4
330
301
100
AcDbEntity
  8
LAYER010
  6
Continuous
 62
    10
100
AcDbMText
 10
4.593472289122843
 20
9.602118571354026
 30
0.0
 40
2.5
 41
85.83431254504825
 71
     7
 72
     5
  1
\W1.11767;明日に向かう。街／路とともに
 73
     1
 44
1.0
1001
ACAD
1000
MTEXTBEGIN
1070
    73
1070
     1
1070
    44
1040
1.0
1070
    74
1070
     0
1000
MTEXTEND
  0
MTEXT
  5
3E5
330
301
100
AcDbEntity
  8
LAYER010
  6
Continuous
 62
    10
100
AcDbMText
 10
27.90442353152503
 20
0.8999996977578348
 30
0.0
 40
1.799999952316284
 41
266.3999929428101
 71
     5
 72
     5
  3
{\W0.706799;\U+ff2f\U+ff33\U+ff21\U+ff2b\U+ff21\U+ff08\U+ff10\U+ff16\U+ff09\U+ff16\U+ff12\U+ff15\U+ff12\U+ff0d\U+ff13\U+ff16\U+ff19\U+ff11\U+3000\U+ff34\U+ff2f\U+ff2b\U+ff39\U+ff2f\U+ff08\U+ff10\U+ff13\U+ff09\U+ff13\U+ff14\U+ff13\U+ff17\U+ff0d\U+ff10
  1
\U+ff13\U+ff10\U+ff16}
 73
     1
 44
1.0
1001
ACAD
1000
MTEXTBEGIN
1070
    73
1070
     1
1070
    44
1040
1.0
1070
    74
1070
     0
1000
MTEXTEND
  0
LINE
  5
3E6
330
301
100
AcDbEntity
  8
LAYER002
  6
Continuous
 62
     2
100
AcDbLine
 10
9.961918648712526
 20
4.543244441105004
 30
0.0
 11
11.2994278039859
 21
4.543244441105006
 31
0.0
  0
LINE
  5
3E7
330
301
100
AcDbEntity
  8
LAYER002
  6
Continuous
 62
     2
100
AcDbLine
 10
12.00941925906412
 20
4.543244441105004
 30
0.0
 11
13.34692841433752
 21
4.543244441105004
 31
0.0
  0
POINT
  5
3E8
330
301
100
AcDbEntity
  8
0
  6
Continuous
100
AcDbPoint
 10
11.65442353152502
 20
4.543244441105004
 30
0.0
  0
ENDBLK
  5
3E9
330
301
100
AcDbEntity
  8
0
100
AcDbBlockEnd
  0
BLOCK
  5
4EF
330
3FC
100
AcDbEntity
  8
0
100
AcDbBlockBegin
  2
表題HP用
 70
     2
 10
0.0
 20
0.0
 30
0.0
  3
表題HP用
  1

  0
LWPOLYLINE
  5
3FD
330
3FC
100
AcDbEntity
  8
AM_0
 62
     1
370
    70
100
AcDbPolyline
 90
        4
 70
     1
 43
0.0
 10
-385.0000006512014
 20
-0.0000002397141543
 10
-0.0000006512013897
 20
-0.0000002397141543
 10
-0.0000006512013897
 20
14.99999976028584
 10
-385.0000006512014
 20
14.99999976028589
1001
GENIUS_GENREC_14
1002
{
1000
PYDIR
1011
-385.0000006512014
1021
14.99999976028584
1031
0.0
1002
}
1002
{
1000
PXDIR
1011
-0.0000006512013897
1021
-0.0000002397141543
1031
0.0
1002
}
1002
{
1000
PORI
1011
-385.0000006512014
1021
-0.0000002397141543
1031
0.0
1002
}
1002
{
1000
PINS
1011
-385.0000006512014
1021
-0.0000002397141543
1031
0.0
1002
}
1002
{
1000
PINS2
1011
-0.0000006512013897
1021
14.99999976028584
1031
0.0
1002
}
1002
{
1000
C
1070
     1
1002
}
1001
GENIUS_GENODEF_13
1002
{
1000
HIER
1070
     0
1002
}
1002
{
1000
MANEDIT
1070
     0
1002
}
1002
{
1000
NOSEL
1070
     0
1002
}
1002
{
1000
BEHIND
1070
     0
1002
}
1002
{
1000
OTHER
1070
     0
1002
}
1002
{
1000
REACTOR
1002
}
1001
GENIUS_GENOBJ-N-REC_13
1002
{
1000
OWNER
1000
GEN
1002
}
  0
LINE
  5
3FE
330
3FC
100
AcDbEntity
  8
AM_0
 62
     1
370
    70
100
AcDbLine
 10
-267.428479925517
 20
14.99999976028588
 30
0.0
 11
-267.428479925517
 21
-0.0000002397141472
 31
0.0
  0
LINE
  5
3FF
330
3FC
100
AcDbEntity
  8
AM_0
 62
     1
370
    70
100
AcDbLine
 10
-207.428479925517
 20
14.99999976028587
 30
0.0
 11
-207.428479925517
 21
-0.0000002397141472
 31
0.0
  0
LINE
  5
400
330
3FC
100
AcDbEntity
  8
AM_0
 62
     1
370
    70
100
AcDbLine
 10
-120.2825557805456
 20
14.99999976028587
 30
0.0
 11
-120.2825557805456
 21
-0.0000002397141472
 31
0.0
  0
TEXT
  5
401
330
3FC
100
AcDbEntity
  8
AM_BOR
370
    13
100
AcDbText
 10
-382.0
 20
11.0
 30
0.0
 40
3.0
  1
備　　考
  7
スタイル1
100
AcDbText
  0
TEXT
  5
402
330
3FC
100
AcDbEntity
  8
AM_BOR
370
    13
100
AcDbText
 10
-207.2378338645648
 20
11.00000000000002
 30
0.0
 40
3.0
  1
日　　付
  7
スタイル1
 72
     1
 11
-199.9764702282011
 21
11.00000000000002
 31
0.0
100
AcDbText
  0
TEXT
  5
403
330
3FC
100
AcDbEntity
  8
AM_BOR
370
    13
100
AcDbText
 10
-160.9849343002148
 20
11.00000000000002
 30
0.0
 40
3.0
  1
縮　尺
  7
スタイル1
100
AcDbText
  0
TEXT
  5
404
330
3FC
100
AcDbEntity
  8
AM_BOR
370
    13
100
AcDbText
 10
-119.4825557805457
 20
11.00000000000002
 30
0.0
 40
3.0
  1
品　番
  7
スタイル1
100
AcDbText
  0
LINE
  5
405
330
3FC
100
AcDbEntity
  8
LAYER001
  6
Continuous
 62
     1
100
AcDbLine
 10
-375.6569430394113
 20
14.99999976028586
 30
0.0
 11
-0.0000006512013897
 21
14.99999976028584
 31
0.0
  0
ATTDEF
  5
406
330
3FC
100
AcDbEntity
  8
AM_BOR
370
    13
100
AcDbText
 10
-117.4996568009408
 20
2.999999760285852
 30
0.0
 40
3.5
  1

  7
スタイル1
100
AcDbAttributeDefinition
  3
図面ファイル名
  2
GEN-TITLE-DWG
 70
     0
  0
ATTDEF
  5
407
330
3FC
100
AcDbEntity
  8
AM_BOR
370
    13
100
AcDbText
 10
-202.7524928718103
 20
2.999999760285861
 30
0.0
 40
3.5
  1

  7
スタイル1
100
AcDbAttributeDefinition
  3
完成日時
  2
GEN-TITLE-DAT
 70
     0
  0
ATTDEF
  5
408
330
3FC
100
AcDbEntity
  8
AM_BOR
370
    13
100
AcDbText
 10
-158.8427863072958
 20
2.999999760285852
 30
0.0
 40
3.5
  1

  7
スタイル1
100
AcDbAttributeDefinition
  3
尺度係数
  2
GEN-TITLE-SCA
 70
     0
  0
LINE
  5
409
330
3FC
100
AcDbEntity
  8
AM_0
 62
     1
370
    70
100
AcDbLine
 10
-162.8370435853013
 20
14.99999976028587
 30
0.0
 11
-162.8370435853013
 21
-0.0000002397141472
 31
0.0
  0
LINE
  5
40A
330
3FC
100
AcDbEntity
  8
LAYER002
  6
Continuous
 62
     2
100
AcDbLine
 10
-252.886951990155
 20
10.40764234251287
 30
0.0
 11
-252.886951990155
 21
9.974307991926945
 31
0.0
  0
LINE
  5
40B
330
3FC
100
AcDbEntity
  8
LAYER002
  6
Continuous
 62
     2
100
AcDbLine
 10
-252.886951990155
 20
9.974307991926945
 30
0.0
 11
-250.4386182499207
 21
9.974307991926945
 31
0.0
  0
LINE
  5
40C
330
3FC
100
AcDbEntity
  8
LAYER002
  6
Continuous
 62
     2
100
AcDbLine
 10
-250.4386182499207
 20
9.974307991926945
 30
0.0
 11
-250.4386182499207
 21
9.264308907454285
 31
0.0
  0
LINE
  5
40D
330
3FC
100
AcDbEntity
  8
LAYER002
  6
Continuous
 62
     2
100
AcDbLine
 10
-251.5544629764832
 20
9.264308907454285
 30
0.0
 11
-250.4386182499207
 21
9.264308907454285
 31
0.0
  0
LINE
  5
40E
330
3FC
100
AcDbEntity
  8
LAYER002
  6
Continuous
 62
     2
100
AcDbLine
 10
-251.554472067377
 20
9.264312049921535
 30
0.0
 11
-251.9866163300571
 21
8.457642737766967
 31
0.0
  0
LINE
  5
40F
330
3FC
100
AcDbEntity
  8
LAYER002
  6
Continuous
 62
     2
100
AcDbLine
 10
-252.3599310863271
 20
9.264302433483944
 30
0.0
 11
-252.7920717462438
 21
8.457639846487875
 31
0.0
  0
LINE
  5
410
330
3FC
100
AcDbEntity
  8
LAYER002
  6
Continuous
 62
     2
100
AcDbLine
 10
-254.2106366825379
 20
9.264308907454285
 30
0.0
 11
-252.3599286747254
 21
9.264308907454285
 31
0.0
  0
LINE
  5
411
330
3FC
100
AcDbEntity
  8
LAYER002
  6
Continuous
 62
     2
100
AcDbLine
 10
-254.2106419240217
 20
9.264305238760766
 30
0.0
 11
-253.7784976613416
 21
8.457635926606197
 31
0.0
  0
LINE
  5
412
330
3FC
100
AcDbEntity
  8
LAYER002
  6
Continuous
 62
     2
100
AcDbLine
 10
-255.0160973402082
 20
9.264308130039875
 30
0.0
 11
-254.5839566802917
 21
8.457645543043806
 31
0.0
  0
LINE
  5
413
330
3FC
100
AcDbEntity
  8
LAYER002
  6
Continuous
 62
     2
100
AcDbLine
 10
-256.1319471073425
 20
9.264308907454285
 30
0.0
 11
-255.01610238078
 21
9.264308907454285
 31
0.0
  0
LINE
  5
414
330
3FC
100
AcDbEntity
  8
LAYER002
  6
Continuous
 62
     2
100
AcDbLine
 10
-256.1319471073425
 20
9.974307991926945
 30
0.0
 11
-256.1319471073425
 21
9.264308907454285
 31
0.0
  0
LINE
  5
415
330
3FC
100
AcDbEntity
  8
LAYER002
  6
Continuous
 62
     2
100
AcDbLine
 10
-256.1319471073425
 20
9.974307991926945
 30
0.0
 11
-253.6836133671081
 21
9.974307991926945
 31
0.0
  0
LINE
  5
416
330
3FC
100
AcDbEntity
  8
LAYER002
  6
Continuous
 62
     2
100
AcDbLine
 10
-253.6836133671081
 20
10.40764234251287
 30
0.0
 11
-253.6836133671081
 21
9.974307991926945
 31
0.0
  0
LINE
  5
417
330
3FC
100
AcDbEntity
  8
LAYER002
  6
Continuous
 62
     2
100
AcDbLine
 10
-253.6836133671081
 20
10.40764234251287
 30
0.0
 11
-252.886951990155
 21
10.40764234251287
 31
0.0
  0
LINE
  5
418
330
3FC
100
AcDbEntity
  8
LAYER002
  6
Continuous
 62
     2
100
AcDbLine
 10
-256.2836042118347
 20
8.457641579573426
 30
0.0
 11
-256.2836042118347
 21
6.707643486922055
 31
0.0
  0
LINE
  5
419
330
3FC
100
AcDbEntity
  8
LAYER002
  6
Continuous
 62
     2
100
AcDbLine
 10
-256.2836042118347
 20
8.457641579573426
 30
0.0
 11
-250.2869611454284
 21
8.457641579573426
 31
0.0
  0
LINE
  5
41A
330
3FC
100
AcDbEntity
  8
LAYER002
  6
Continuous
 62
     2
100
AcDbLine
 10
-250.2869611454284
 20
8.457641579573426
 30
0.0
 11
-250.2869611454284
 21
6.707643486922055
 31
0.0
  0
LINE
  5
41B
330
3FC
100
AcDbEntity
  8
LAYER002
  6
Continuous
 62
     2
100
AcDbLine
 10
-250.882786340741
 20
6.707643486922055
 30
0.0
 11
-250.2869611454284
 21
6.707643486922055
 31
0.0
  0
LINE
  5
41C
330
3FC
100
AcDbEntity
  8
LAYER002
  6
Continuous
 62
     2
100
AcDbLine
 10
-250.882786340741
 20
6.707643486922055
 30
0.0
 11
-250.882786340741
 21
5.090976693098815
 31
0.0
  0
LINE
  5
41D
330
3FC
100
AcDbEntity
  8
LAYER002
  6
Continuous
 62
     2
100
AcDbLine
 10
-252.1229444217957
 20
4.540976502363955
 30
0.0
 11
-251.4327893924988
 21
4.540976502363955
 31
0.0
  0
LINE
  5
41E
330
3FC
100
AcDbEntity
  8
LAYER002
  6
Continuous
 62
     2
100
AcDbLine
 10
-252.2919874646173
 20
5.250973977516176
 30
0.0
 11
-252.1229408166622
 21
4.540978034353795
 31
0.0
  0
LINE
  5
41F
330
3FC
100
AcDbEntity
  8
LAYER002
  6
Continuous
 62
     2
100
AcDbLine
 10
-252.2919965458191
 20
5.250975586836606
 30
0.0
 11
-251.8011213016785
 21
5.250975586836606
 31
0.0
  0
LINE
  5
420
330
3FC
100
AcDbEntity
  8
LAYER002
  6
Continuous
 62
     2
100
AcDbLine
 10
-251.5927777958191
 20
6.230976082747256
 30
0.0
 11
-251.5927777958191
 21
5.459309555952826
 31
0.0
  0
LINE
  5
421
330
3FC
100
AcDbEntity
  8
LAYER002
  6
Continuous
 62
     2
100
AcDbLine
 10
-254.9777875614441
 20
6.230976082747256
 30
0.0
 11
-254.9777875614441
 21
4.540976502363955
 31
0.0
  0
LINE
  5
422
330
3FC
100
AcDbEntity
  8
LAYER002
  6
Continuous
 62
     2
100
AcDbLine
 10
-255.6877790165222
 20
4.540976502363955
 30
0.0
 11
-254.9777875614441
 21
4.540976502363955
 31
0.0
  0
LINE
  5
423
330
3FC
100
AcDbEntity
  8
LAYER002
  6
Continuous
 62
     2
100
AcDbLine
 10
-255.6877790165222
 20
6.707643486922055
 30
0.0
 11
-255.6877790165222
 21
4.540976502363955
 31
0.0
  0
LINE
  5
424
330
3FC
100
AcDbEntity
  8
LAYER002
  6
Continuous
 62
     2
100
AcDbLine
 10
-256.2836042118347
 20
6.707643486922055
 30
0.0
 11
-255.6877790165222
 21
6.707643486922055
 31
0.0
  0
LINE
  5
425
330
3FC
100
AcDbEntity
  8
LAYER002
  6
Continuous
 62
     2
100
AcDbLine
 10
-255.5736280155457
 20
7.747642495100766
 30
0.0
 11
-255.5736280155457
 21
6.940975167219916
 31
0.0
  0
LINE
  5
426
330
3FC
100
AcDbEntity
  8
LAYER002
  6
Continuous
 62
     2
100
AcDbLine
 10
-255.5736280155457
 20
7.747642495100766
 30
0.0
 11
-253.6402784061706
 21
7.747642495100766
 31
0.0
  0
LINE
  5
427
330
3FC
100
AcDbEntity
  8
LAYER002
  6
Continuous
 62
     2
100
AcDbLine
 10
-253.6402784061706
 20
7.747642495100766
 30
0.0
 11
-253.6402784061706
 21
6.940975167219914
 31
0.0
  0
LINE
  5
428
330
3FC
100
AcDbEntity
  8
LAYER002
  6
Continuous
 62
     2
100
AcDbLine
 10
-253.6402784061707
 20
6.230976082747258
 30
0.0
 11
-253.6402784061706
 21
4.107643105452336
 31
0.0
  0
LINE
  5
429
330
3FC
100
AcDbEntity
  8
LAYER002
  6
Continuous
 62
     2
100
AcDbLine
 10
-252.9302869510925
 20
7.747642495100766
 30
0.0
 11
-252.9302869510925
 21
6.940975167219916
 31
0.0
  0
LINE
  5
42A
330
3FC
100
AcDbEntity
  8
LAYER002
  6
Continuous
 62
     2
100
AcDbLine
 10
-252.9302869510925
 20
6.230976082747256
 30
0.0
 11
-252.9302869510925
 21
4.107643105452336
 31
0.0
  0
LINE
  5
42B
330
3FC
100
AcDbEntity
  8
LAYER002
  6
Continuous
 62
     2
100
AcDbLine
 10
-252.9302869510925
 20
7.747642495100766
 30
0.0
 11
-250.9969373417175
 21
7.747642495100766
 31
0.0
  0
LINE
  5
42C
330
3FC
100
AcDbEntity
  8
LAYER002
  6
Continuous
 62
     2
100
AcDbLine
 10
-250.9969373417175
 20
7.747642495100766
 30
0.0
 11
-250.9969373417175
 21
6.940975167219916
 31
0.0
  0
LINE
  5
42D
330
3FC
100
AcDbEntity
  8
LAYER002
  6
Continuous
 62
     2
100
AcDbLine
 10
-255.5736280155457
 20
6.940975167219916
 30
0.0
 11
-253.6402784061706
 21
6.940975167219914
 31
0.0
  0
LINE
  5
42E
330
3FC
100
AcDbEntity
  8
LAYER002
  6
Continuous
 62
     2
100
AcDbLine
 10
-252.9302869510925
 20
6.940975167219916
 30
0.0
 11
-250.9969373417175
 21
6.940975167219916
 31
0.0
  0
LINE
  5
42F
330
3FC
100
AcDbEntity
  8
LAYER002
  6
Continuous
 62
     2
100
AcDbLine
 10
-253.6402784061706
 20
4.107643105452336
 30
0.0
 11
-252.9302869510925
 21
4.107643105452336
 31
0.0
  0
LINE
  5
430
330
3FC
100
AcDbEntity
  8
LAYER002
  6
Continuous
 62
     2
100
AcDbLine
 10
-247.1740003299988
 20
10.32097623533514
 30
0.0
 11
-246.7852826786316
 21
10.32097623533514
 31
0.0
  0
LINE
  5
431
330
3FC
100
AcDbEntity
  8
LAYER002
  6
Continuous
 62
     2
100
AcDbLine
 10
-246.3965650272644
 20
10.32097623533514
 30
0.0
 11
-246.7852826786316
 21
10.32097623533514
 31
0.0
  0
LINE
  5
432
330
3FC
100
AcDbEntity
  8
LAYER002
  6
Continuous
 62
     2
100
AcDbLine
 10
-243.6894433632041
 20
8.707312472960037
 30
0.0
 11
-244.057412881097
 21
8.069970583772306
 31
0.0
  0
LINE
  5
433
330
3FC
100
AcDbEntity
  8
LAYER002
  6
Continuous
 62
     2
100
AcDbLine
 10
-244.935291833905
 20
8.391046502058774
 30
0.0
 11
-244.935291833905
 21
7.964309670393735
 31
0.0
  0
LINE
  5
434
330
3FC
100
AcDbEntity
  8
LAYER002
  6
Continuous
 62
     2
100
AcDbLine
 10
-244.935291833905
 20
7.964309670393735
 30
0.0
 11
-246.4519544315613
 21
7.964309670393735
 31
0.0
  0
LINE
  5
435
330
3FC
100
AcDbEntity
  8
LAYER002
  6
Continuous
 62
     2
100
AcDbLine
 10
-246.4519544315613
 20
7.964309670393735
 30
0.0
 11
-246.4519544315613
 21
7.374309517805844
 31
0.0
  0
LINE
  5
436
330
3FC
100
AcDbEntity
  8
LAYER002
  6
Continuous
 62
     2
100
AcDbLine
 10
-243.9602857303894
 20
7.374309517805844
 30
0.0
 11
-246.4519544315613
 21
7.374309517805844
 31
0.0
  0
LINE
  5
437
330
3FC
100
AcDbEntity
  8
LAYER002
  6
Continuous
 62
     2
100
AcDbLine
 10
-243.9602857303894
 20
7.374309517805844
 30
0.0
 11
-243.9602857303894
 21
6.664310433333195
 31
0.0
  0
LINE
  5
438
330
3FC
100
AcDbEntity
  8
LAYER002
  6
Continuous
 62
     2
100
AcDbLine
 10
-243.9602857303894
 20
6.664310433333195
 30
0.0
 11
-246.4519544315613
 21
6.664310433333195
 31
0.0
  0
LINE
  5
439
330
3FC
100
AcDbEntity
  8
LAYER002
  6
Continuous
 62
     2
100
AcDbLine
 10
-246.4519544315613
 20
6.664310433333195
 30
0.0
 11
-246.4519544315613
 21
5.142642952864445
 31
0.0
  0
LINE
  5
43A
330
3FC
100
AcDbEntity
  8
LAYER002
  6
Continuous
 62
     2
100
AcDbLine
 10
-245.8551221561706
 20
5.142642952864445
 30
0.0
 11
-246.4519544315613
 21
5.142642952864445
 31
0.0
  0
LINE
  5
43B
330
3FC
100
AcDbEntity
  8
LAYER002
  6
Continuous
 62
     2
100
AcDbLine
 10
-245.4539148252353
 20
6.321002407672445
 30
0.0
 11
-244.7828792315311
 21
6.068342224920636
 31
0.0
  0
LINE
  5
43C
330
3FC
100
AcDbEntity
  8
LAYER002
  6
Continuous
 62
     2
100
AcDbLine
 10
-243.8086286258972
 20
5.142642952864445
 30
0.0
 11
-245.0786481571472
 21
5.142642952864445
 31
0.0
  0
LINE
  5
43D
330
3FC
100
AcDbEntity
  8
LAYER002
  6
Continuous
 62
     2
100
AcDbLine
 10
-243.8086286258972
 20
5.142642952864445
 30
0.0
 11
-243.8086286258972
 21
4.432642914717465
 31
0.0
  0
LINE
  5
43E
330
3FC
100
AcDbEntity
  8
LAYER002
  6
Continuous
 62
     2
100
AcDbLine
 10
-243.8086286258972
 20
4.432642914717465
 30
0.0
 11
-249.761936731366
 21
4.432642914717465
 31
0.0
  0
LINE
  5
43F
330
3FC
100
AcDbEntity
  8
LAYER002
  6
Continuous
 62
     2
100
AcDbLine
 10
-249.761936731366
 20
5.142642952864445
 30
0.0
 11
-249.761936731366
 21
4.432642914717465
 31
0.0
  0
LINE
  5
440
330
3FC
100
AcDbEntity
  8
LAYER002
  6
Continuous
 62
     2
100
AcDbLine
 10
-249.761936731366
 20
5.142642952864445
 30
0.0
 11
-248.4568372440612
 21
5.142642952864445
 31
0.0
  0
LINE
  5
441
330
3FC
100
AcDbEntity
  8
LAYER002
  6
Continuous
 62
     2
100
AcDbLine
 10
-248.0929611704677
 20
6.329916672281166
 30
0.0
 11
-248.7594414162459
 21
6.078971681763995
 31
0.0
  0
LINE
  5
442
330
3FC
100
AcDbEntity
  8
LAYER002
  6
Continuous
 62
     2
100
AcDbLine
 10
-247.737049646405
 20
5.142642952864445
 30
0.0
 11
-247.1186109257019
 21
5.142642952864445
 31
0.0
  0
LINE
  5
443
330
3FC
100
AcDbEntity
  8
LAYER002
  6
Continuous
 62
     2
100
AcDbLine
 10
-247.1186109257019
 20
6.664310433333195
 30
0.0
 11
-247.1186109257019
 21
5.142642952864445
 31
0.0
  0
LINE
  5
444
330
3FC
100
AcDbEntity
  8
LAYER002
  6
Continuous
 62
     2
100
AcDbLine
 10
-249.6102796268738
 20
6.664310433333195
 30
0.0
 11
-247.1186109257019
 21
6.664310433333195
 31
0.0
  0
LINE
  5
445
330
3FC
100
AcDbEntity
  8
LAYER002
  6
Continuous
 62
     2
100
AcDbLine
 10
-249.6102796268738
 20
7.374309517805844
 30
0.0
 11
-249.6102796268738
 21
6.664310433333195
 31
0.0
  0
LINE
  5
446
330
3FC
100
AcDbEntity
  8
LAYER002
  6
Continuous
 62
     2
100
AcDbLine
 10
-249.6102796268738
 20
7.374309517805844
 30
0.0
 11
-247.1186109257019
 21
7.374309517805844
 31
0.0
  0
LINE
  5
447
330
3FC
100
AcDbEntity
  8
LAYER002
  6
Continuous
 62
     2
100
AcDbLine
 10
-247.1186109257019
 20
7.964309670393735
 30
0.0
 11
-247.1186109257019
 21
7.374309517805844
 31
0.0
  0
LINE
  5
448
330
3FC
100
AcDbEntity
  8
LAYER002
  6
Continuous
 62
     2
100
AcDbLine
 10
-248.6352735233581
 20
7.964309670393735
 30
0.0
 11
-247.1186109257019
 21
7.964309670393735
 31
0.0
  0
LINE
  5
449
330
3FC
100
AcDbEntity
  8
LAYER002
  6
Continuous
 62
     2
100
AcDbLine
 10
-248.6352735233581
 20
8.391046502058774
 30
0.0
 11
-248.6352735233581
 21
7.964309670393735
 31
0.0
  0
LINE
  5
44A
330
3FC
100
AcDbEntity
  8
LAYER002
  6
Continuous
 62
     2
100
AcDbLine
 10
-249.8811158142136
 20
8.707312547465836
 30
0.0
 11
-249.5131501110182
 21
8.069977265527576
 31
0.0
  0
LINE
  5
44B
330
3FC
100
AcDbEntity
  8
LAYER002
  6
Continuous
 62
     2
100
AcDbLine
 10
-248.0887494755066
 20
8.674308754866395
 30
0.0
 11
-246.7852826786316
 21
8.674308754866395
 31
0.0
  0
LINE
  5
44C
330
3FC
100
AcDbEntity
  8
LAYER002
  6
Continuous
 62
     2
100
AcDbLine
 10
-245.4818158817566
 20
8.674308754866395
 30
0.0
 11
-246.7852826786316
 21
8.674308754866395
 31
0.0
  0
LINE
  5
44D
330
3FC
100
AcDbEntity
  8
LAYER002
  6
Continuous
 62
     2
100
AcDbLine
 10
-243.3269391727722
 20
9.107643105452336
 30
0.0
 11
-243.3269391727722
 21
8.397644020979676
 31
0.0
  0
LINE
  5
44E
330
3FC
100
AcDbEntity
  8
LAYER002
  6
Continuous
 62
     2
100
AcDbLine
 10
-243.3269391727722
 20
9.107643105452336
 30
0.0
 11
-242.5686078739441
 21
9.107643105452336
 31
0.0
  0
LINE
  5
44F
330
3FC
100
AcDbEntity
  8
LAYER002
  6
Continuous
 62
     2
100
AcDbLine
 10
-242.5686078739441
 20
10.40764234251287
 30
0.0
 11
-242.5686078739441
 21
9.107643105452336
 31
0.0
  0
LINE
  5
450
330
3FC
100
AcDbEntity
  8
LAYER002
  6
Continuous
 62
     2
100
AcDbLine
 10
-242.5686078739441
 20
10.40764234251287
 30
0.0
 11
-241.858616418866
 21
10.40764234251287
 31
0.0
  0
LINE
  5
451
330
3FC
100
AcDbEntity
  8
LAYER002
  6
Continuous
 62
     2
100
AcDbLine
 10
-241.858616418866
 20
10.40764234251287
 30
0.0
 11
-241.858616418866
 21
9.107643105452336
 31
0.0
  0
LINE
  5
452
330
3FC
100
AcDbEntity
  8
LAYER002
  6
Continuous
 62
     2
100
AcDbLine
 10
-241.858616418866
 20
9.107643105452336
 30
0.0
 11
-241.2952924442566
 21
9.107643105452336
 31
0.0
  0
LINE
  5
453
330
3FC
100
AcDbEntity
  8
LAYER002
  6
Continuous
 62
     2
100
AcDbLine
 10
-241.2952924442566
 20
9.107643105452336
 30
0.0
 11
-241.2952924442566
 21
8.397644020979676
 31
0.0
  0
LINE
  5
454
330
3FC
100
AcDbEntity
  8
LAYER002
  6
Continuous
 62
     2
100
AcDbLine
 10
-240.585974494237
 20
10.18935116965587
 30
0.0
 11
-240.0319675147364
 21
9.996653092109717
 31
0.0
  0
LINE
  5
455
330
3FC
100
AcDbEntity
  8
LAYER002
  6
Continuous
 62
     2
100
AcDbLine
 10
-240.1299329471862
 20
9.432641961043156
 30
0.0
 11
-239.57860238078
 21
9.432641961043156
 31
0.0
  0
LINE
  5
456
330
3FC
100
AcDbEntity
  8
LAYER002
  6
Continuous
 62
     2
100
AcDbLine
 10
-239.57860238078
 20
10.40764234251287
 30
0.0
 11
-239.57860238078
 21
9.432641961043156
 31
0.0
  0
LINE
  5
457
330
3FC
100
AcDbEntity
  8
LAYER002
  6
Continuous
 62
     2
100
AcDbLine
 10
-239.57860238078
 20
10.40764234251287
 30
0.0
 11
-238.868626184491
 21
10.40764234251287
 31
0.0
  0
LINE
  5
458
330
3FC
100
AcDbEntity
  8
LAYER002
  6
Continuous
 62
     2
100
AcDbLine
 10
-238.868626184491
 20
10.40764234251287
 30
0.0
 11
-238.868626184491
 21
9.432641961043156
 31
0.0
  0
LINE
  5
459
330
3FC
100
AcDbEntity
  8
LAYER002
  6
Continuous
 62
     2
100
AcDbLine
 10
-238.868626184491
 20
9.432641961043156
 30
0.0
 11
-237.4602857303894
 21
9.432641961043156
 31
0.0
  0
LINE
  5
45A
330
3FC
100
AcDbEntity
  8
LAYER002
  6
Continuous
 62
     2
100
AcDbLine
 10
-237.4602857303894
 20
9.432641961043156
 30
0.0
 11
-237.4602857303894
 21
8.722642876570496
 31
0.0
  0
LINE
  5
45B
330
3FC
100
AcDbEntity
  8
LAYER002
  6
Continuous
 62
     2
100
AcDbLine
 10
-238.868626184491
 20
8.722642876570496
 30
0.0
 11
-237.4602857303894
 21
8.722642876570496
 31
0.0
  0
LINE
  5
45C
330
3FC
100
AcDbEntity
  8
LAYER002
  6
Continuous
 62
     2
100
AcDbLine
 10
-238.868626184491
 20
8.722642876570496
 30
0.0
 11
-238.868626184491
 21
7.937643029158387
 31
0.0
  0
LINE
  5
45D
330
3FC
100
AcDbEntity
  8
LAYER002
  6
Continuous
 62
     2
100
AcDbLine
 10
-238.868626184491
 20
7.937643029158387
 30
0.0
 11
-237.243626184491
 21
7.937643029158387
 31
0.0
  0
LINE
  5
45E
330
3FC
100
AcDbEntity
  8
LAYER002
  6
Continuous
 62
     2
100
AcDbLine
 10
-237.243626184491
 20
7.937643029158387
 30
0.0
 11
-237.243626184491
 21
7.227642037337094
 31
0.0
  0
LINE
  5
45F
330
3FC
100
AcDbEntity
  8
LAYER002
  6
Continuous
 62
     2
100
AcDbLine
 10
-238.6512647342957
 20
7.227642037337094
 30
0.0
 11
-237.243626184491
 21
7.227642037337094
 31
0.0
  0
LINE
  5
460
330
3FC
100
AcDbEntity
  8
LAYER002
  6
Continuous
 62
     2
100
AcDbLine
 10
-237.6130409941453
 20
4.486424818574045
 30
0.0
 11
-237.1309759508949
 21
5.175089144601166
 31
0.0
  0
LINE
  5
461
330
3FC
100
AcDbEntity
  8
LAYER002
  6
Continuous
 62
     2
100
AcDbLine
 10
-238.868626184491
 20
6.549159981673035
 30
0.0
 11
-238.868626184491
 21
4.107643105452336
 31
0.0
  0
LINE
  5
462
330
3FC
100
AcDbEntity
  8
LAYER002
  6
Continuous
 62
     2
100
AcDbLine
 10
-239.57860238078
 20
4.107643105452336
 30
0.0
 11
-238.868626184491
 21
4.107643105452336
 31
0.0
  0
LINE
  5
463
330
3FC
100
AcDbEntity
  8
LAYER002
  6
Continuous
 62
     2
100
AcDbLine
 10
-239.57860238078
 20
6.496735550825865
 30
0.0
 11
-239.57860238078
 21
4.107643105452336
 31
0.0
  0
LINE
  5
464
330
3FC
100
AcDbEntity
  8
LAYER002
  6
Continuous
 62
     2
100
AcDbLine
 10
-241.3602751323375
 20
5.033659145315915
 30
0.0
 11
-240.9257817724223
 21
4.482187645648796
 31
0.0
  0
LINE
  5
465
330
3FC
100
AcDbEntity
  8
LAYER002
  6
Continuous
 62
     2
100
AcDbLine
 10
-240.8934064579285
 20
7.227642037337094
 30
0.0
 11
-239.8123059940612
 21
7.227642037337094
 31
0.0
  0
LINE
  5
466
330
3FC
100
AcDbEntity
  8
LAYER002
  6
Continuous
 62
     2
100
AcDbLine
 10
-240.9219403934754
 20
7.937643029158387
 30
0.0
 11
-239.57860238078
 21
7.937643029158387
 31
0.0
  0
LINE
  5
467
330
3FC
100
AcDbEntity
  8
LAYER002
  6
Continuous
 62
     2
100
AcDbLine
 10
-239.57860238078
 20
8.722642876570496
 30
0.0
 11
-239.57860238078
 21
7.937643029158387
 31
0.0
  0
LINE
  5
468
330
3FC
100
AcDbEntity
  8
LAYER002
  6
Continuous
 62
     2
100
AcDbLine
 10
-240.3818402958191
 20
8.722642876570496
 30
0.0
 11
-239.57860238078
 21
8.722642876570496
 31
0.0
  0
LINE
  5
469
330
3FC
100
AcDbEntity
  8
LAYER002
  6
Continuous
 62
     2
100
AcDbLine
 10
-241.2391576714689
 20
8.624352984091867
 30
0.0
 11
-240.7690671388371
 21
8.067781209956226
 31
0.0
  0
LINE
  5
46A
330
3FC
100
AcDbEntity
  8
LAYER002
  6
Continuous
 62
     2
100
AcDbLine
 10
-240.9219403934754
 20
7.937643029158387
 30
0.0
 11
-240.9219403934754
 21
7.227642037337094
 31
0.0
  0
LINE
  5
46B
330
3FC
100
AcDbEntity
  8
LAYER002
  6
Continuous
 62
     2
100
AcDbLine
 10
-241.8689618778504
 20
8.397644020979676
 30
0.0
 11
-241.2952924442566
 21
8.397644020979676
 31
0.0
  0
LINE
  5
46C
330
3FC
100
AcDbEntity
  8
LAYER002
  6
Continuous
 62
     2
100
AcDbLine
 10
-241.3860698899981
 20
6.561242415745645
 30
0.0
 11
-240.9627374590002
 21
7.133862500276684
 31
0.0
  0
LINE
  5
46D
330
3FC
100
AcDbEntity
  8
LAYER002
  6
Continuous
 62
     2
100
AcDbLine
 10
-241.858616418866
 20
7.035619713728696
 30
0.0
 11
-241.858616418866
 21
4.107643105452336
 31
0.0
  0
LINE
  5
46E
330
3FC
100
AcDbEntity
  8
LAYER002
  6
Continuous
 62
     2
100
AcDbLine
 10
-242.5686078739441
 20
4.107643105452336
 30
0.0
 11
-241.858616418866
 21
4.107643105452336
 31
0.0
  0
LINE
  5
46F
330
3FC
100
AcDbEntity
  8
LAYER002
  6
Continuous
 62
     2
100
AcDbLine
 10
-242.5686078739441
 20
6.784953095381535
 30
0.0
 11
-242.5686078739441
 21
4.107643105452336
 31
0.0
  0
LINE
  5
470
330
3FC
100
AcDbEntity
  8
LAYER002
  6
Continuous
 62
     2
100
AcDbLine
 10
-243.5294863656688
 20
6.374950405388565
 30
0.0
 11
-243.187736791038
 21
5.520576455099735
 31
0.0
  0
LINE
  5
471
330
3FC
100
AcDbEntity
  8
LAYER002
  6
Continuous
 62
     2
100
AcDbLine
 10
-243.3269391727722
 20
8.397644020979676
 30
0.0
 11
-242.585667200116
 21
8.397644020979676
 31
0.0
  0
LINE
  5
472
330
3FC
100
AcDbEntity
  8
LAYER002
  6
Continuous
 62
     2
100
AcDbLine
 10
-236.8052716923035
 20
9.324310280745304
 30
0.0
 11
-236.8052716923035
 21
8.614301659529484
 31
0.0
  0
LINE
  5
473
330
3FC
100
AcDbEntity
  8
LAYER002
  6
Continuous
 62
     2
100
AcDbLine
 10
-236.8052716923035
 20
9.324310280745304
 30
0.0
 11
-233.2952771854675
 21
9.324310280745304
 31
0.0
  0
LINE
  5
474
330
3FC
100
AcDbEntity
  8
LAYER002
  6
Continuous
 62
     2
100
AcDbLine
 10
-233.2952771854675
 20
10.40764234251287
 30
0.0
 11
-233.2952771854675
 21
9.324310280745304
 31
0.0
  0
LINE
  5
475
330
3FC
100
AcDbEntity
  8
LAYER002
  6
Continuous
 62
     2
100
AcDbLine
 10
-233.2952771854675
 20
10.40764234251287
 30
0.0
 11
-232.5852857303894
 21
10.40764234251287
 31
0.0
  0
LINE
  5
476
330
3FC
100
AcDbEntity
  8
LAYER002
  6
Continuous
 62
     2
100
AcDbLine
 10
-232.5852857303894
 20
10.40764234251287
 30
0.0
 11
-232.5852857303894
 21
9.324310280745304
 31
0.0
  0
LINE
  5
477
330
3FC
100
AcDbEntity
  8
LAYER002
  6
Continuous
 62
     2
100
AcDbLine
 10
-232.5852857303894
 20
9.324310280745304
 30
0.0
 11
-231.4575696659363
 21
9.324310280745304
 31
0.0
  0
LINE
  5
478
330
3FC
100
AcDbEntity
  8
LAYER002
  6
Continuous
 62
     2
100
AcDbLine
 10
-231.8126815742822
 20
9.858062644285347
 30
0.0
 11
-231.1660765004326
 21
10.10077881158568
 31
0.0
  0
LINE
  5
479
330
3FC
100
AcDbEntity
  8
LAYER002
  6
Continuous
 62
     2
100
AcDbLine
 10
-230.8952769000507
 20
9.049326825195457
 30
0.0
 11
-230.6605945291693
 21
9.137419554276824
 31
0.0
  0
LINE
  5
47A
330
3FC
100
AcDbEntity
  8
LAYER002
  6
Continuous
 62
     2
100
AcDbLine
 10
-230.8952832889832
 20
9.049327828352726
 30
0.0
 11
-230.8952832889832
 21
8.614309288924015
 31
0.0
  0
LINE
  5
47B
330
3FC
100
AcDbEntity
  8
LAYER002
  6
Continuous
 62
     2
100
AcDbLine
 10
-232.5703778934754
 20
8.614309288924015
 30
0.0
 11
-230.8952832889832
 21
8.614309288924015
 31
0.0
  0
LINE
  5
47C
330
3FC
100
AcDbEntity
  8
LAYER002
  6
Continuous
 62
     2
100
AcDbLine
 10
-231.2478464643972
 20
6.060950457631465
 30
0.0
 11
-231.4376605958547
 21
5.329438687941216
 31
0.0
  0
LINE
  5
47D
330
3FC
100
AcDbEntity
  8
LAYER002
  6
Continuous
 62
     2
100
AcDbLine
 10
-231.2478384819541
 20
6.060955404559525
 30
0.0
 11
-230.6499452559479
 21
5.292235501089646
 31
0.0
  0
LINE
  5
47E
330
3FC
100
AcDbEntity
  8
LAYER002
  6
Continuous
 62
     2
100
AcDbLine
 10
-230.6499447179693
 20
5.292228502070425
 30
0.0
 11
-230.9387676127164
 21
4.596542814700205
 31
0.0
  0
LINE
  5
47F
330
3FC
100
AcDbEntity
  8
LAYER002
  6
Continuous
 62
     2
100
AcDbLine
 10
-236.8052716923035
 20
8.614301659529484
 30
0.0
 11
-233.2682080936707
 21
8.614301659529484
 31
0.0
  0
LINE
  5
480
330
3FC
100
AcDbEntity
  8
LAYER002
  6
Continuous
 62
     2
100
AcDbLine
 10
-233.6686139774597
 20
7.699316002791196
 30
0.0
 11
-233.6686139774597
 21
6.989301659529486
 31
0.0
  0
LINE
  5
481
330
3FC
100
AcDbEntity
  8
LAYER002
  6
Continuous
 62
     2
100
AcDbLine
 10
-236.5669599247254
 20
7.699316002791196
 30
0.0
 11
-233.6686139774597
 21
7.699316002791196
 31
0.0
  0
LINE
  5
482
330
3FC
100
AcDbEntity
  8
LAYER002
  6
Continuous
 62
     2
100
AcDbLine
 10
-236.5669599247254
 20
7.699316002791196
 30
0.0
 11
-236.5669599247254
 21
6.989301659529486
 31
0.0
  0
LINE
  5
483
330
3FC
100
AcDbEntity
  8
LAYER002
  6
Continuous
 62
     2
100
AcDbLine
 10
-236.5669599247254
 20
6.989301659529486
 30
0.0
 11
-235.4186292362488
 21
6.989301659529486
 31
0.0
  0
LINE
  5
484
330
3FC
100
AcDbEntity
  8
LAYER002
  6
Continuous
 62
     2
100
AcDbLine
 10
-235.4186292362488
 20
6.989301659529486
 30
0.0
 11
-235.4186292362488
 21
5.289714791243346
 31
0.0
  0
LINE
  5
485
330
3FC
100
AcDbEntity
  8
LAYER002
  6
Continuous
 62
     2
100
AcDbLine
 10
-236.7808928105463
 20
5.219804396381235
 30
0.0
 11
-236.6981773953339
 21
4.527062799825065
 31
0.0
  0
LINE
  5
486
330
3FC
100
AcDbEntity
  8
LAYER002
  6
Continuous
 62
     2
100
AcDbLine
 10
-236.6981773953339
 20
4.527062799825065
 30
0.0
 11
-233.409965364456
 21
4.919685135184476
 31
0.0
  0
LINE
  5
487
330
3FC
100
AcDbEntity
  8
LAYER002
  6
Continuous
 62
     2
100
AcDbLine
 10
-233.4099622440612
 20
5.620681740706235
 30
0.0
 11
-233.4099622440612
 21
4.919683434431826
 31
0.0
  0
LINE
  5
488
330
3FC
100
AcDbEntity
  8
LAYER002
  6
Continuous
 62
     2
100
AcDbLine
 10
-234.7086072635925
 20
6.989301659529486
 30
0.0
 11
-234.7086072635925
 21
5.375158287947446
 31
0.0
  0
LINE
  5
489
330
3FC
100
AcDbEntity
  8
LAYER002
  6
Continuous
 62
     2
100
AcDbLine
 10
-234.7086072635925
 20
6.989301659529486
 30
0.0
 11
-233.6686139774597
 21
6.989301659529486
 31
0.0
  0
LINE
  5
48A
330
3FC
100
AcDbEntity
  8
LAYER002
  6
Continuous
 62
     2
100
AcDbLine
 10
-226.0296215093412
 20
6.341587484031666
 30
0.0
 11
-226.6094198728802
 21
5.910412868962175
 31
0.0
  0
LINE
  5
48B
330
3FC
100
AcDbEntity
  8
LAYER002
  6
Continuous
 62
     2
100
AcDbLine
 10
-224.9846783826679
 20
4.215389097046505
 30
0.0
 11
-224.4091252440715
 21
4.633973213268795
 31
0.0
  0
LINE
  5
48C
330
3FC
100
AcDbEntity
  8
LAYER002
  6
Continuous
 62
     2
100
AcDbLine
 10
-229.8638215024577
 20
4.441379718777625
 30
0.0
 11
-225.3538680557332
 21
4.641105850218746
 31
0.0
  0
LINE
  5
48D
330
3FC
100
AcDbEntity
  8
LAYER002
  6
Continuous
 62
     2
100
AcDbLine
 10
-229.9967305802891
 20
5.146858094025185
 30
0.0
 11
-229.8638148103025
 21
4.441382081627656
 31
0.0
  0
LINE
  5
48E
330
3FC
100
AcDbEntity
  8
LAYER002
  6
Continuous
 62
     2
100
AcDbLine
 10
-229.9967424299886
 20
5.146854859938006
 30
0.0
 11
-228.9674764152676
 21
5.165462694700625
 31
0.0
  0
LINE
  5
48F
330
3FC
100
AcDbEntity
  8
LAYER002
  6
Continuous
 62
     2
100
AcDbLine
 10
-228.2446650582419
 20
6.664305113279436
 30
0.0
 11
-228.9674691638569
 21
5.165461801797516
 31
0.0
  0
LINE
  5
490
330
3FC
100
AcDbEntity
  8
LAYER002
  6
Continuous
 62
     2
100
AcDbLine
 10
-230.1102796268738
 20
6.664310433333195
 30
0.0
 11
-228.2446637821472
 21
6.664310433333195
 31
0.0
  0
LINE
  5
491
330
3FC
100
AcDbEntity
  8
LAYER002
  6
Continuous
 62
     2
100
AcDbLine
 10
-230.1102796268738
 20
7.374309517805844
 30
0.0
 11
-230.1102796268738
 21
6.664310433333195
 31
0.0
  0
LINE
  5
492
330
3FC
100
AcDbEntity
  8
LAYER002
  6
Continuous
 62
     2
100
AcDbLine
 10
-230.1102796268738
 20
7.374309517805844
 30
0.0
 11
-224.4602857303894
 21
7.374309517805844
 31
0.0
  0
LINE
  5
493
330
3FC
100
AcDbEntity
  8
LAYER002
  6
Continuous
 62
     2
100
AcDbLine
 10
-224.4602857303894
 20
7.374309517805844
 30
0.0
 11
-224.4602857303894
 21
6.664310433333195
 31
0.0
  0
LINE
  5
494
330
3FC
100
AcDbEntity
  8
LAYER002
  6
Continuous
 62
     2
100
AcDbLine
 10
-227.4564252567566
 20
6.664310433333195
 30
0.0
 11
-224.4602857303894
 21
6.664310433333195
 31
0.0
  0
LINE
  5
495
330
3FC
100
AcDbEntity
  8
LAYER002
  6
Continuous
 62
     2
100
AcDbLine
 10
-227.4564264358303
 20
6.664309423384796
 30
0.0
 11
-228.1722976773514
 21
5.179842451074106
 31
0.0
  0
LINE
  5
496
330
3FC
100
AcDbEntity
  8
LAYER002
  6
Continuous
 62
     2
100
AcDbLine
 10
-228.1722877512301
 20
5.179838705424666
 30
0.0
 11
-225.8965518345639
 21
5.220981147995406
 31
0.0
  0
LINE
  5
497
330
3FC
100
AcDbEntity
  8
LAYER002
  6
Continuous
 62
     2
100
AcDbLine
 10
-229.1352735233582
 20
7.964309670393735
 30
0.0
 11
-225.435291833905
 21
7.964309670393735
 31
0.0
  0
LINE
  5
498
330
3FC
100
AcDbEntity
  8
LAYER002
  6
Continuous
 62
     2
100
AcDbLine
 10
-225.435291833905
 20
8.391046502058774
 30
0.0
 11
-225.435291833905
 21
7.964309670393735
 31
0.0
  0
LINE
  5
499
330
3FC
100
AcDbEntity
  8
LAYER002
  6
Continuous
 62
     2
100
AcDbLine
 10
-224.1894419996943
 20
8.707311534186864
 30
0.0
 11
-224.557411517587
 21
8.069969644999144
 31
0.0
  0
LINE
  5
49A
330
3FC
100
AcDbEntity
  8
LAYER002
  6
Continuous
 62
     2
100
AcDbLine
 10
-227.6740003299988
 20
10.32097623533514
 30
0.0
 11
-226.8965650272644
 21
10.32097623533514
 31
0.0
  0
LINE
  5
49B
330
3FC
100
AcDbEntity
  8
LAYER002
  6
Continuous
 62
     2
100
AcDbLine
 10
-230.3811144507037
 20
8.707313486239005
 30
0.0
 11
-230.013144932811
 21
8.069971597051296
 31
0.0
  0
LINE
  5
49C
330
3FC
100
AcDbEntity
  8
LAYER002
  6
Continuous
 62
     2
100
AcDbLine
 10
-229.1352735233582
 20
8.391046502058774
 30
0.0
 11
-229.1352735233582
 21
7.964309670393735
 31
0.0
  0
LINE
  5
49D
330
3FC
100
AcDbEntity
  8
LAYER002
  6
Continuous
 62
     2
100
AcDbLine
 10
-228.5887494755066
 20
8.674308754866395
 30
0.0
 11
-225.9818158817566
 21
8.674308754866395
 31
0.0
  0
LINE
  5
49E
330
3FC
100
AcDbEntity
  8
LAYER002
  6
Continuous
 62
     2
100
AcDbLine
 10
-222.7869458866394
 20
10.40764234251287
 30
0.0
 11
-222.7869458866394
 21
9.280984856550965
 31
0.0
  0
LINE
  5
49F
330
3FC
100
AcDbEntity
  8
LAYER002
  6
Continuous
 62
     2
100
AcDbLine
 10
-222.7869458866394
 20
10.40764234251287
 30
0.0
 11
-222.0769544315613
 21
10.40764234251287
 31
0.0
  0
LINE
  5
4A0
330
3FC
100
AcDbEntity
  8
LAYER002
  6
Continuous
 62
     2
100
AcDbLine
 10
-222.0769544315613
 20
10.40764234251287
 30
0.0
 11
-222.0769544315613
 21
9.280975319807804
 31
0.0
  0
LINE
  5
4A1
330
3FC
100
AcDbEntity
  8
LAYER002
  6
Continuous
 62
     2
100
AcDbLine
 10
-222.0769544315613
 20
9.280975319807804
 30
0.0
 11
-221.2752881717957
 21
9.280975319807804
 31
0.0
  0
LINE
  5
4A2
330
3FC
100
AcDbEntity
  8
LAYER002
  6
Continuous
 62
     2
100
AcDbLine
 10
-221.2752881717957
 20
9.280975319807804
 30
0.0
 11
-221.2752881717957
 21
8.496406533186707
 31
0.0
  0
LINE
  5
4A3
330
3FC
100
AcDbEntity
  8
LAYER002
  6
Continuous
 62
     2
100
AcDbLine
 10
-221.3272762831614
 20
6.052573548175626
 30
0.0
 11
-220.9029475082861
 21
6.625101586347536
 31
0.0
  0
LINE
  5
4A4
330
3FC
100
AcDbEntity
  8
LAYER002
  6
Continuous
 62
     2
100
AcDbLine
 10
-222.0769544315613
 20
6.797346093123236
 30
0.0
 11
-222.0769544315613
 21
4.107643105452336
 31
0.0
  0
LINE
  5
4A5
330
3FC
100
AcDbEntity
  8
LAYER002
  6
Continuous
 62
     2
100
AcDbLine
 10
-222.7869458866394
 20
4.107643105452336
 30
0.0
 11
-222.0769544315613
 21
4.107643105452336
 31
0.0
  0
LINE
  5
4A6
330
3FC
100
AcDbEntity
  8
LAYER002
  6
Continuous
 62
     2
100
AcDbLine
 10
-222.7869458866394
 20
6.375231720869816
 30
0.0
 11
-222.7869458866394
 21
4.107643105452336
 31
0.0
  0
LINE
  5
4A7
330
3FC
100
AcDbEntity
  8
LAYER002
  6
Continuous
 62
     2
100
AcDbLine
 10
-223.9088641654588
 20
6.354550981469765
 30
0.0
 11
-223.5668749940788
 21
5.602174819211935
 31
0.0
  0
LINE
  5
4A8
330
3FC
100
AcDbEntity
  8
LAYER002
  6
Continuous
 62
     2
100
AcDbLine
 10
-222.0769462655109
 20
6.797344018448296
 30
0.0
 11
-221.5461308820483
 21
6.246112630629216
 31
0.0
  0
LINE
  5
4A9
330
3FC
100
AcDbEntity
  8
LAYER002
  6
Continuous
 62
     2
100
AcDbLine
 10
-223.761951990155
 20
8.570966698591984
 30
0.0
 11
-221.9172864628113
 21
8.570966698591984
 31
0.0
  0
LINE
  5
4AA
330
3FC
100
AcDbEntity
  8
LAYER002
  6
Continuous
 62
     2
100
AcDbLine
 10
-223.761951990155
 20
9.280984856550965
 30
0.0
 11
-223.761951990155
 21
8.570966698591984
 31
0.0
  0
LINE
  5
4AB
330
3FC
100
AcDbEntity
  8
LAYER002
  6
Continuous
 62
     2
100
AcDbLine
 10
-223.761951990155
 20
9.280984856550965
 30
0.0
 11
-222.7869458866394
 21
9.280984856550965
 31
0.0
  0
LINE
  5
4AC
330
3FC
100
AcDbEntity
  8
LAYER002
  6
Continuous
 62
     2
100
AcDbLine
 10
-220.858631677655
 20
8.782651879256047
 30
0.0
 11
-220.858631677655
 21
8.072633721297055
 31
0.0
  0
LINE
  5
4AD
330
3FC
100
AcDbEntity
  8
LAYER002
  6
Continuous
 62
     2
100
AcDbLine
 10
-220.858631677655
 20
8.782651879256047
 30
0.0
 11
-219.7536206913269
 21
8.782651879256047
 31
0.0
  0
LINE
  5
4AE
330
3FC
100
AcDbEntity
  8
LAYER002
  6
Continuous
 62
     2
100
AcDbLine
 10
-219.7536206913269
 20
10.29931829160955
 30
0.0
 11
-219.7536206913269
 21
8.782651879256047
 31
0.0
  0
LINE
  5
4AF
330
3FC
100
AcDbEntity
  8
LAYER002
  6
Continuous
 62
     2
100
AcDbLine
 10
-219.7536206913269
 20
10.29931829160955
 30
0.0
 11
-219.0436139774597
 21
10.29931829160955
 31
0.0
  0
LINE
  5
4B0
330
3FC
100
AcDbEntity
  8
LAYER002
  6
Continuous
 62
     2
100
AcDbLine
 10
-219.0436139774597
 20
10.29931829160955
 30
0.0
 11
-219.0436139774597
 21
8.782651879256047
 31
0.0
  0
LINE
  5
4B1
330
3FC
100
AcDbEntity
  8
LAYER002
  6
Continuous
 62
     2
100
AcDbLine
 10
-219.0436139774597
 20
8.782651879256047
 30
0.0
 11
-217.8086133671082
 21
8.782651879256047
 31
0.0
  0
LINE
  5
4B2
330
3FC
100
AcDbEntity
  8
LAYER002
  6
Continuous
 62
     2
100
AcDbLine
 10
-217.8086133671082
 20
8.782651879256047
 30
0.0
 11
-217.8086133671082
 21
8.072633721297055
 31
0.0
  0
LINE
  5
4B3
330
3FC
100
AcDbEntity
  8
LAYER002
  6
Continuous
 62
     2
100
AcDbLine
 10
-219.0436139774597
 20
8.072633721297055
 30
0.0
 11
-217.8086133671082
 21
8.072633721297055
 31
0.0
  0
LINE
  5
4B4
330
3FC
100
AcDbEntity
  8
LAYER002
  6
Continuous
 62
     2
100
AcDbLine
 10
-219.0436139774597
 20
8.072633721297055
 30
0.0
 11
-219.0436139774597
 21
5.120985009138856
 31
0.0
  0
LINE
  5
4B5
330
3FC
100
AcDbEntity
  8
LAYER002
  6
Continuous
 62
     2
100
AcDbLine
 10
-219.0436139774597
 20
5.120985009138856
 30
0.0
 11
-217.6786084842956
 21
5.120985009138856
 31
0.0
  0
LINE
  5
4B6
330
3FC
100
AcDbEntity
  8
LAYER002
  6
Continuous
 62
     2
100
AcDbLine
 10
-217.6786084842956
 20
5.120985009138856
 30
0.0
 11
-217.6786084842956
 21
4.410966851179875
 31
0.0
  0
LINE
  5
4B7
330
3FC
100
AcDbEntity
  8
LAYER002
  6
Continuous
 62
     2
100
AcDbLine
 10
-221.291966028241
 20
4.410966851179875
 30
0.0
 11
-217.6786084842956
 21
4.410966851179875
 31
0.0
  0
LINE
  5
4B8
330
3FC
100
AcDbEntity
  8
LAYER002
  6
Continuous
 62
     2
100
AcDbLine
 10
-221.291966028241
 20
5.120985009138856
 30
0.0
 11
-221.291966028241
 21
4.410966851179875
 31
0.0
  0
LINE
  5
4B9
330
3FC
100
AcDbEntity
  8
LAYER002
  6
Continuous
 62
     2
100
AcDbLine
 10
-221.291966028241
 20
5.120985009138856
 30
0.0
 11
-219.7536206913269
 21
5.120985009138856
 31
0.0
  0
LINE
  5
4BA
330
3FC
100
AcDbEntity
  8
LAYER002
  6
Continuous
 62
     2
100
AcDbLine
 10
-219.7536206913269
 20
8.072633721297055
 30
0.0
 11
-219.7536206913269
 21
5.120985009138856
 31
0.0
  0
LINE
  5
4BB
330
3FC
100
AcDbEntity
  8
LAYER002
  6
Continuous
 62
     2
100
AcDbLine
 10
-220.858631677655
 20
8.072633721297055
 30
0.0
 11
-219.7536206913269
 21
8.072633721297055
 31
0.0
  0
ARC
  5
4BC
330
3FC
100
AcDbEntity
  8
LAYER002
  6
Continuous
 62
     2
100
AcDbCircle
 10
-251.4327893924988
 20
5.090976693098815
 30
0.0
 40
0.5499999523162842
100
AcDbArc
 50
269.9999974955215
 51
0.0
  0
ARC
  5
4BD
330
3FC
100
AcDbEntity
  8
LAYER002
  6
Continuous
 62
     2
100
AcDbCircle
 10
-251.8011213016785
 20
5.459309555952826
 30
0.0
 40
0.2083333283662796
100
AcDbArc
 50
269.9999974955215
 51
0.0
  0
ARC
  5
4BE
330
3FC
100
AcDbEntity
  8
LAYER002
  6
Continuous
 62
     2
100
AcDbCircle
 10
-242.4133649540222
 20
13.92569158262519
 30
0.0
 40
5.372136116027832
100
AcDbArc
 50
222.144461490936
 51
256.2588863195073
  0
ARC
  5
4BF
330
3FC
100
AcDbEntity
  8
LAYER002
  6
Continuous
 62
     2
100
AcDbCircle
 10
-242.4133649540222
 20
13.92569158262519
 30
0.0
 40
6.082136154174804
100
AcDbArc
 50
245.5031073957324
 51
254.3174801800118
  0
ARC
  5
4C0
330
3FC
100
AcDbEntity
  8
LAYER002
  6
Continuous
 62
     2
100
AcDbCircle
 10
-250.6562085819519
 20
7.434785820906437
 30
0.0
 40
5.320183277130126
100
AcDbArc
 50
334.4791825813552
 51
347.9156954949181
  0
ARC
  5
4C1
330
3FC
100
AcDbEntity
  8
LAYER002
  6
Continuous
 62
     2
100
AcDbCircle
 10
-250.6562085819519
 20
7.434785820906437
 30
0.0
 40
6.030182838439941
100
AcDbArc
 50
337.6594040362788
 51
346.9029807853597
  0
ARC
  5
4C2
330
3FC
100
AcDbEntity
  8
LAYER002
  6
Continuous
 62
     2
100
AcDbCircle
 10
-252.1261182499206
 20
4.473863579695496
 30
0.0
 40
3.729733943939208
100
AcDbArc
 50
10.32958963371853
 51
25.49006619945449
  0
ARC
  5
4C3
330
3FC
100
AcDbEntity
  8
LAYER002
  6
Continuous
 62
     2
100
AcDbCircle
 10
-252.1261182499206
 20
4.473863579695496
 30
0.0
 40
4.439733982086181
100
AcDbArc
 50
8.663732962135238
 51
24.71180541711893
  0
ARC
  5
4C4
330
3FC
100
AcDbEntity
  8
LAYER002
  6
Continuous
 62
     2
100
AcDbCircle
 10
-251.157200403241
 20
13.92569158262519
 30
0.0
 40
6.082136154174804
100
AcDbArc
 50
285.6825762827356
 51
294.4968944255018
  0
ARC
  5
4C5
330
3FC
100
AcDbEntity
  8
LAYER002
  6
Continuous
 62
     2
100
AcDbCircle
 10
-251.157200403241
 20
13.92569158262519
 30
0.0
 40
5.372136116027832
100
AcDbArc
 50
283.7411769734292
 51
317.8555403302989
  0
ARC
  5
4C6
330
3FC
100
AcDbEntity
  8
LAYER002
  6
Continuous
 62
     2
100
AcDbCircle
 10
-242.4133649540222
 20
13.92569158262519
 30
0.0
 40
6.082136154174804
100
AcDbArc
 50
224.0434453254954
 51
239.7017359600209
  0
ARC
  5
4C7
330
3FC
100
AcDbEntity
  8
LAYER002
  6
Continuous
 62
     2
100
AcDbCircle
 10
-251.157200403241
 20
13.92569158262519
 30
0.0
 40
6.082136154174804
100
AcDbArc
 50
300.2982590310245
 51
315.9565564957385
  0
ARC
  5
4C8
330
3FC
100
AcDbEntity
  8
LAYER002
  6
Continuous
 62
     2
100
AcDbCircle
 10
-243.7769666385925
 20
10.6023692864826
 30
0.0
 40
3.217607975006103
100
AcDbArc
 50
322.0663758592739
 51
352.625044333298
  0
ARC
  5
4C9
330
3FC
100
AcDbEntity
  8
LAYER002
  6
Continuous
 62
     2
100
AcDbCircle
 10
-243.9403424930847
 20
10.38493154234198
 30
0.0
 40
3.927608013153076
100
AcDbArc
 50
345.9682019493257
 51
354.326552884801
  0
ARC
  5
4CA
330
3FC
100
AcDbEntity
  8
LAYER002
  6
Continuous
 62
     2
100
AcDbCircle
 10
-234.6475721073425
 20
8.603809334700375
 30
0.0
 40
4.233608722686767
100
AcDbArc
 50
198.9690832219488
 51
234.084465443196
  0
ARC
  5
4CB
330
3FC
100
AcDbEntity
  8
LAYER002
  6
Continuous
 62
     2
100
AcDbCircle
 10
-234.0157514286316
 20
8.089578606550965
 30
0.0
 40
5.091485500335693
100
AcDbArc
 50
197.6107088601952
 51
225.0467318126795
  0
ARC
  5
4CC
330
3FC
100
AcDbEntity
  8
LAYER002
  6
Continuous
 62
     2
100
AcDbCircle
 10
-245.3316388798035
 20
8.886196114485535
 30
0.0
 40
6.229516983032226
100
AcDbArc
 50
315.0119652391877
 51
337.4449600020025
  0
ARC
  5
4CD
330
3FC
100
AcDbEntity
  8
LAYER002
  6
Continuous
 62
     2
100
AcDbCircle
 10
-244.9608197880066
 20
9.217092492049015
 30
0.0
 40
5.519516944885253
100
AcDbArc
 50
310.7174394023131
 51
338.8728230008243
  0
ARC
  5
4CE
330
3FC
100
AcDbEntity
  8
LAYER002
  6
Continuous
 62
     2
100
AcDbCircle
 10
-243.9403424930847
 20
10.38493154234198
 30
0.0
 40
3.927608013153076
100
AcDbArc
 50
323.8455240248455
 51
334.9611992763675
  0
ARC
  5
4CF
330
3FC
100
AcDbEntity
  8
LAYER002
  6
Continuous
 62
     2
100
AcDbCircle
 10
-238.6866498661316
 20
9.722780205672055
 30
0.0
 40
3.447182178497314
100
AcDbArc
 50
202.6072108041132
 51
228.6792723001024
  0
ARC
  5
4D0
330
3FC
100
AcDbEntity
  8
LAYER002
  6
Continuous
 62
     2
100
AcDbCircle
 10
-238.6866498661316
 20
9.722780205672055
 30
0.0
 40
4.157182216644287
100
AcDbArc
 50
220.2699570543616
 51
229.5083479823144
  0
ARC
  5
4D1
330
3FC
100
AcDbEntity
  8
LAYER002
  6
Continuous
 62
     2
100
AcDbCircle
 10
-248.12059456828
 20
8.719820000593937
 30
0.0
 40
5.879472732543945
100
AcDbArc
 50
327.0342114992451
 51
340.7865378458766
  0
ARC
  5
4D2
330
3FC
100
AcDbEntity
  8
LAYER002
  6
Continuous
 62
     2
100
AcDbCircle
 10
-247.6316877079284
 20
9.520648934309754
 30
0.0
 40
5.169472694396972
100
AcDbArc
 50
322.5178001369924
 51
347.4531482541357
  0
ARC
  5
4D3
330
3FC
100
AcDbEntity
  8
LAYER002
  6
Continuous
 62
     2
100
AcDbCircle
 10
-234.1305738163269
 20
7.930978753035336
 30
0.0
 40
3.014348506927489
100
AcDbArc
 50
27.53130409140639
 51
39.73991206296718
  0
ARC
  5
4D4
330
3FC
100
AcDbEntity
  8
LAYER002
  6
Continuous
 62
     2
100
AcDbCircle
 10
-234.1305738163269
 20
7.930978753035336
 30
0.0
 40
3.67372441291809
100
AcDbArc
 50
19.17154016054552
 51
36.2014506011714
  0
ARC
  5
4D5
330
3FC
100
AcDbEntity
  8
LAYER002
  6
Continuous
 62
     2
100
AcDbCircle
 10
-219.4775434208191
 20
9.479028679793156
 30
0.0
 40
13.12135219573975
100
AcDbArc
 50
183.7786332248139
 51
198.5130041703101
  0
ARC
  5
4D6
330
3FC
100
AcDbEntity
  8
LAYER002
  6
Continuous
 62
     2
100
AcDbCircle
 10
-231.6812482548035
 20
5.392644860213076
 30
0.0
 40
0.2516608834266663
100
AcDbArc
 50
198.5130041703098
 51
345.4535873227271
  0
ARC
  5
4D7
330
3FC
100
AcDbEntity
  8
LAYER002
  6
Continuous
 62
     2
100
AcDbCircle
 10
-231.671116418866
 20
4.900584198897156
 30
0.0
 40
0.7929474711418152
100
AcDbArc
 50
200.5801609226153
 51
337.4535882384713
  0
ARC
  5
4D8
330
3FC
100
AcDbEntity
  8
LAYER002
  6
Continuous
 62
     2
100
AcDbCircle
 10
-219.4775434208191
 20
9.479028679793156
 30
0.0
 40
13.81774616241455
100
AcDbArc
 50
183.5879616639438
 51
200.5801609226152
  0
ARC
  5
4D9
330
3FC
100
AcDbEntity
  8
LAYER002
  6
Continuous
 62
     2
100
AcDbCircle
 10
-236.8771100712097
 20
20.40220258421209
 30
0.0
 40
15.18270206451416
100
AcDbArc
 50
270.3631108423682
 51
275.512458759533
  0
ARC
  5
4DA
330
3FC
100
AcDbEntity
  8
LAYER002
  6
Continuous
 62
     2
100
AcDbCircle
 10
-236.8771100712097
 20
20.40220258421209
 30
0.0
 40
15.18270206451416
100
AcDbArc
 50
278.2114694817656
 51
283.2006289723249
  0
ARC
  5
4DB
330
3FC
100
AcDbEntity
  8
LAYER002
  6
Continuous
 62
     2
100
AcDbCircle
 10
-238.7067151737487
 20
-7.311435244614806
 30
0.0
 40
18.63099098205566
100
AcDbArc
 50
39.87824388422753
 51
47.12272159344206
  0
ARC
  5
4DC
330
3FC
100
AcDbEntity
  8
LAYER002
  6
Continuous
 62
     2
100
AcDbCircle
 10
-238.7067151737487
 20
-7.311435244614806
 30
0.0
 40
17.92099189758301
100
AcDbArc
 50
44.3720678108932
 51
47.54314705761209
  0
ARC
  5
4DD
330
3FC
100
AcDbEntity
  8
LAYER002
  6
Continuous
 62
     2
100
AcDbCircle
 10
-238.7067151737487
 20
-7.311435244614806
 30
0.0
 40
17.92099189758301
100
AcDbArc
 50
40.03105229143286
 51
41.83268202465791
  0
ARC
  5
4DE
330
3FC
100
AcDbEntity
  8
LAYER002
  6
Continuous
 62
     2
100
AcDbCircle
 10
-222.9133649540222
 20
13.92569158262519
 30
0.0
 40
6.082136154174804
100
AcDbArc
 50
245.5031073957324
 51
254.31749384039
  0
ARC
  5
4DF
330
3FC
100
AcDbEntity
  8
LAYER002
  6
Continuous
 62
     2
100
AcDbCircle
 10
-222.9133649540222
 20
13.92569158262519
 30
0.0
 40
5.372136116027832
100
AcDbArc
 50
222.144461490936
 51
256.2588999798852
  0
ARC
  5
4E0
330
3FC
100
AcDbEntity
  8
LAYER002
  6
Continuous
 62
     2
100
AcDbCircle
 10
-231.657200403241
 20
13.92569158262519
 30
0.0
 40
5.372136116027832
100
AcDbArc
 50
283.7411906338084
 51
317.8555403302989
  0
ARC
  5
4E1
330
3FC
100
AcDbEntity
  8
LAYER002
  6
Continuous
 62
     2
100
AcDbCircle
 10
-231.657200403241
 20
13.92569158262519
 30
0.0
 40
6.082136154174804
100
AcDbArc
 50
285.6825899431134
 51
294.4968944255018
  0
ARC
  5
4E2
330
3FC
100
AcDbEntity
  8
LAYER002
  6
Continuous
 62
     2
100
AcDbCircle
 10
-222.9133649540222
 20
13.92569158262519
 30
0.0
 40
6.082136154174804
100
AcDbArc
 50
224.0434453254954
 51
239.7017359600209
  0
ARC
  5
4E3
330
3FC
100
AcDbEntity
  8
LAYER002
  6
Continuous
 62
     2
100
AcDbCircle
 10
-231.657200403241
 20
13.92569158262519
 30
0.0
 40
6.082136154174804
100
AcDbArc
 50
300.2982590310245
 51
315.9565564957385
  0
ARC
  5
4E4
330
3FC
100
AcDbEntity
  8
LAYER002
  6
Continuous
 62
     2
100
AcDbCircle
 10
-230.8184247684754
 20
13.69815252012519
 30
0.0
 40
10.86874961853027
100
AcDbArc
 50
325.4612838201876
 51
331.406225832254
  0
ARC
  5
4E5
330
3FC
100
AcDbEntity
  8
LAYER002
  6
Continuous
 62
     2
100
AcDbCircle
 10
-219.2372327518738
 20
9.348941780989445
 30
0.0
 40
3.192793846130371
100
AcDbArc
 50
214.5991241940667
 51
238.5529937642722
  0
ARC
  5
4E6
330
3FC
100
AcDbEntity
  8
LAYER002
  6
Continuous
 62
     2
100
AcDbCircle
 10
-220.2320752811707
 20
7.511507012312687
 30
0.0
 40
1.824270844459533
100
AcDbArc
 50
223.919067580711
 51
233.1051392596222
  0
ARC
  5
4E7
330
3FC
100
AcDbEntity
  8
LAYER002
  6
Continuous
 62
     2
100
AcDbCircle
 10
-230.8184247684754
 20
13.69815252012519
 30
0.0
 40
10.86874961853027
100
AcDbArc
 50
311.8507112195894
 51
317.6421276545864
  0
ARC
  5
4E8
330
3FC
100
AcDbEntity
  8
LAYER002
  6
Continuous
 62
     2
100
AcDbCircle
 10
-227.2737470341004
 20
11.38109395689276
 30
0.0
 40
6.048844814300537
100
AcDbArc
 50
303.7992056788037
 51
332.3174413694255
  0
MTEXT
  5
4E9
330
3FC
100
AcDbEntity
  8
LAYER010
  6
Continuous
 62
    10
100
AcDbMText
 10
-260.3462339210338
 20
11.28985021299627
 30
0.0
 40
2.5
 41
85.83431254504825
 71
     7
 72
     5
  1
\W1.11767;やさしさと安全をキーワードに
 73
     1
 44
1.0
1001
ACAD
1000
MTEXTBEGIN
1070
    73
1070
     1
1070
    44
1040
1.0
1070
    74
1070
     0
1000
MTEXTEND
  0
MTEXT
  5
4EA
330
3FC
100
AcDbEntity
  8
LAYER010
  6
Continuous
 62
    10
100
AcDbMText
 10
-237.0352826786316
 20
2.587731339400086
 30
0.0
 40
1.799999952316284
 41
266.3999929428101
 71
     5
 72
     5
  3
{\W0.706799;\U+ff2f\U+ff33\U+ff21\U+ff2b\U+ff21\U+ff08\U+ff10\U+ff16\U+ff09\U+ff16\U+ff12\U+ff15\U+ff12\U+ff0d\U+ff13\U+ff16\U+ff19\U+ff11\U+3000\U+ff34\U+ff2f\U+ff2b\U+ff39\U+ff2f\U+ff08\U+ff10\U+ff13\U+ff09\U+ff13\U+ff14\U+ff13\U+ff17\U+ff0d\U+ff10
  1
\U+ff13\U+ff10\U+ff16}
 73
     1
 44
1.0
1001
ACAD
1000
MTEXTBEGIN
1070
    73
1070
     1
1070
    44
1040
1.0
1070
    74
1070
     0
1000
MTEXTEND
  0
LINE
  5
4EB
330
3FC
100
AcDbEntity
  8
LAYER002
  6
Continuous
 62
     2
100
AcDbLine
 10
-254.9777875614441
 20
6.230976082747256
 30
0.0
 11
-253.6402784061707
 21
6.230976082747258
 31
0.0
  0
LINE
  5
4EC
330
3FC
100
AcDbEntity
  8
LAYER002
  6
Continuous
 62
     2
100
AcDbLine
 10
-252.9302869510925
 20
6.230976082747256
 30
0.0
 11
-251.5927777958191
 21
6.230976082747256
 31
0.0
  0
ENDBLK
  5
4F0
330
3FC
100
AcDbEntity
  8
0
100
AcDbBlockEnd
  0
BLOCK
  5
6D9
330
6D8
100
AcDbEntity
  8
0
100
AcDbBlockBegin
  2
_OPEN
 70
     0
 10
0.0
 20
0.0
 30
0.0
  3
_OPEN
  1

  0
LINE
  5
6DA
330
6D8
100
AcDbEntity
  8
0
  6
ByBlock
 62
     0
100
AcDbLine
 10
-1.0
 20
0.166667
 30
0.0
 11
0.0
 21
0.0
 31
0.0
  0
LINE
  5
6DB
330
6D8
100
AcDbEntity
  8
0
  6
ByBlock
 62
     0
100
AcDbLine
 10
0.0
 20
0.0
 30
0.0
 11
-1.0
 21
-0.166667
 31
0.0
  0
LINE
  5
6DC
330
6D8
100
AcDbEntity
  8
0
  6
ByBlock
 62
     0
100
AcDbLine
 10
0.0
 20
0.0
 30
0.0
 11
-1.0
 21
0.0
 31
0.0
  0
ENDBLK
  5
6DD
330
6D8
100
AcDbEntity
  8
0
100
AcDbBlockEnd
  0
BLOCK
  5
6DF
330
6DE
100
AcDbEntity
  8
0
100
AcDbBlockBegin
  2
*D8
 70
     1
 10
0.0
 20
0.0
 30
0.0
  3
*D8
  1

  0
LINE
  5
6E0
330
6DE
100
AcDbEntity
  8
寸法
370
    -2
100
AcDbLine
 10
596.827956
 20
994.0777925
 30
0.0
 11
392.5931875000003
 21
994.0777925
 31
0.0
  0
LINE
  5
6E1
330
6DE
100
AcDbEntity
  8
寸法
370
    -2
100
AcDbLine
 10
476.827958
 20
94.07784400000002
 30
0.0
 11
392.5931875000001
 21
94.07784400000002
 31
0.0
  0
LINE
  5
6E2
330
6DE
100
AcDbEntity
  8
寸法
370
    -2
100
AcDbLine
 10
402.5931875000003
 20
964.0777925
 30
0.0
 11
402.5931875
 21
124.077844
 31
0.0
  0
INSERT
  5
6E3
330
6DE
100
AcDbEntity
  8
寸法
370
    -2
100
AcDbBlockReference
  2
_OPEN
 10
402.5931875000003
 20
994.0777925
 30
0.0
 41
30.0
 42
30.0
 43
30.0
 50
90.0
  0
INSERT
  5
6E4
330
6DE
100
AcDbEntity
  8
寸法
370
    -2
100
AcDbBlockReference
  2
_OPEN
 10
402.5931875
 20
94.07784400000002
 30
0.0
 41
30.0
 42
30.0
 43
30.0
 50
270.0
  0
MTEXT
  5
6E5
330
6DE
100
AcDbEntity
  8
寸法
100
AcDbMText
 10
376.5931875000001
 20
544.07781825
 30
0.0
 40
32.0
 41
0.0
 71
     5
 72
     1
  1
\A1;900
 11
0.0000000000000001
 21
1.0
 31
0.0
 73
     1
 44
1.0
1001
ACAD
1000
MTEXTBEGIN
1070
    73
1070
     1
1070
    44
1040
1.0
1070
    74
1070
     0
1000
MTEXTEND
  0
POINT
  5
6E6
330
6DE
100
AcDbEntity
  8
Defpoints
 62
     0
100
AcDbPoint
 10
606.827956
 20
994.0777925
 30
0.0
  0
POINT
  5
6E7
330
6DE
100
AcDbEntity
  8
Defpoints
 62
     0
100
AcDbPoint
 10
486.8279580000001
 20
94.077844
 30
0.0
  0
POINT
  5
6E8
330
6DE
100
AcDbEntity
  8
Defpoints
 62
     0
100
AcDbPoint
 10
402.5931875
 20
94.07784400000002
 30
0.0
  0
ENDBLK
  5
6E9
330
6DE
100
AcDbEntity
  8
0
100
AcDbBlockEnd
  0
BLOCK
  5
79F
330
6ED
100
AcDbEntity
  8
0
100
AcDbBlockBegin
  2
A$C3FC05445
 70
     0
 10
0.0
 20
0.0
 30
0.0
  3
A$C3FC05445
  1

  0
TEXT
  5
6EE
330
6ED
100
AcDbEntity
  8
注釈
100
AcDbText
 10
802.2185772141224
 20
123.7364116928945
 30
0.0
 40
24.0
  1
S61-NU(ベルト色：青　赤　グレー)
100
AcDbText
  0
TEXT
  5
6EF
330
6ED
100
AcDbEntity
  8
注釈
100
AcDbText
 10
635.7187595
 20
1066.457298
 30
0.0
 40
16.0
  1
支柱ピッチ　最大１８００
 41
0.8437660000000001
100
AcDbText
  0
LINE
  5
6F0
330
6ED
100
AcDbEntity
  8
寸法
100
AcDbLine
 10
67.39463549999993
 20
1062.4572975
 30
0.0
 11
1450.367338
 21
1062.4572975
 31
0.0
  0
LINE
  5
6F1
330
6ED
100
AcDbEntity
  8
実線
100
AcDbLine
 10
36.24999949999994
 20
809.99995
 30
0.0
 11
1437.4220445
 21
809.99995
 31
0.0
  0
LINE
  5
6F2
330
6ED
100
AcDbEntity
  8
実線
100
AcDbLine
 10
36.24999949999994
 20
859.9999490000001
 30
0.0
 11
1437.4220445
 21
859.9999490000001
 31
0.0
  0
LINE
  5
6F3
330
6ED
100
AcDbEntity
  8
一点鎖線
100
AcDbLine
 10
-94.66537300000004
 20
834.9999495
 30
0.0
 11
1591.7130045
 21
834.9999495
 31
0.0
  0
DIMENSION
  5
6F4
330
6ED
100
AcDbEntity
  8
寸法
100
AcDbDimension
  2
*D8
 10
-204.2347685
 20
0.0
 30
0.0
 11
-230.2347685
 21
449.99997425
 31
0.0
 12
-606.827956
 22
-94.07784400000002
 32
0.0
  1
900
 71
     5
 42
899.9999485
  3
STANDARD
100
AcDbAlignedDimension
 13
0.0
 23
899.9999485
 33
0.0
 14
-119.999998
 24
-0.0000000000000284
 34
0.0
 50
90.0
100
AcDbRotatedDimension
1001
ACAD
1000
DSTYLE
1002
{
1002
}
  0
LINE
  5
6F5
330
6ED
100
AcDbEntity
  8
実線
100
AcDbLine
 10
30.24993849999999
 20
769.9999505
 30
0.0
 11
30.24993849999999
 21
34.99999949999998
 31
0.0
  0
LINE
  5
6F6
330
6ED
100
AcDbEntity
  8
実線
100
AcDbLine
 10
-30.2499385000001
 20
769.9999505
 30
0.0
 11
-30.2499385000001
 21
34.99999949999998
 31
0.0
  0
LINE
  5
6F7
330
6ED
100
AcDbEntity
  8
実線
100
AcDbLine
 10
30.24993849999999
 20
769.9999505
 30
0.0
 11
30.24993849999999
 21
34.99999949999998
 31
0.0
  0
LINE
  5
6F8
330
6ED
100
AcDbEntity
  8
一点鎖線
100
AcDbLine
 10
0.0
 20
920.2423340000001
 30
0.0
 11
0.0
 21
-37.79354900000003
 31
0.0
  0
ARC
  5
6F9
330
6ED
100
AcDbEntity
  8
実線
100
AcDbCircle
 10
122.3484785
 20
2.000007499999981
 30
0.0
 40
2.0
100
AcDbArc
 50
269.9999970000023
 51
15.94539599999931
  0
LINE
  5
6FA
330
6ED
100
AcDbEntity
  8
実線
100
AcDbLine
 10
-124.2715745
 20
2.549415999999979
 30
0.0
 11
-115.8288765000001
 21
32.09886199999997
 31
0.0
  0
LINE
  5
6FB
330
6ED
100
AcDbEntity
  8
実線
100
AcDbLine
 10
124.271612
 20
2.549470499999969
 30
0.0
 11
115.8289135
 21
32.09891599999997
 31
0.0
  0
LINE
  5
6FC
330
6ED
100
AcDbEntity
  8
実線
100
AcDbLine
 10
-122.3484785
 20
-0.0000000000000284
 30
0.0
 11
122.3484785
 21
-0.0000000000000284
 31
0.0
  0
ARC
  5
6FD
330
6ED
100
AcDbEntity
  8
実線
100
AcDbCircle
 10
-122.3484785
 20
2.000007499999981
 30
0.0
 40
2.0
100
AcDbArc
 50
164.0546009999992
 51
270.0000010000014
  0
LINE
  5
6FE
330
6ED
100
AcDbEntity
  8
実線
100
AcDbLine
 10
111.9827255
 20
34.99999949999998
 30
0.0
 11
-111.9827255
 21
34.99999949999998
 31
0.0
  0
ARC
  5
6FF
330
6ED
100
AcDbEntity
  8
実線
100
AcDbCircle
 10
-111.9827255
 20
31.00000349999998
 30
0.0
 40
4.0
100
AcDbArc
 50
90.00000299999769
 51
164.0546009999992
  0
ARC
  5
700
330
6ED
100
AcDbEntity
  8
実線
100
AcDbCircle
 10
111.9827255
 20
31.00000349999998
 30
0.0
 40
4.0
100
AcDbArc
 50
15.94539599999931
 51
90.00000299999769
  0
ARC
  5
701
330
6ED
100
AcDbEntity
  8
実線
100
AcDbCircle
 10
0.0
 20
1254.14909
 30
0.0
 40
124.999998
100
AcDbArc
 50
0.9167580000000347
 51
359.0831800000004
  0
LINE
  5
702
330
6ED
100
AcDbEntity
  8
実線
100
AcDbLine
 10
50.24993849999998
 20
1252.148968
 30
0.0
 11
191.2381714999999
 21
1252.148968
 31
0.0
  0
LINE
  5
703
330
6ED
100
AcDbEntity
  8
実線
100
AcDbLine
 10
50.24993849999998
 20
1256.1490595
 30
0.0
 11
191.2381714999999
 21
1256.1490595
 31
0.0
  0
LINE
  5
704
330
6ED
100
AcDbEntity
  8
一点鎖線
100
AcDbLine
 10
-135.485075
 20
1254.14909
 30
0.0
 11
197.0668765
 21
1254.14909
 31
0.0
  0
LINE
  5
705
330
6ED
100
AcDbEntity
  8
実線
100
AcDbLine
 10
-30.25001900000007
 20
895.0000045000001
 30
0.0
 11
-28.99681950000013
 21
897.1706100000002
 31
0.0
  0
LINE
  5
706
330
6ED
100
AcDbEntity
  8
実線
100
AcDbLine
 10
28.99684249999996
 20
897.1705619999999
 30
0.0
 11
30.250047
 21
894.9999485000001
 31
0.0
  0
LINE
  5
707
330
6ED
100
AcDbEntity
  8
実線
100
AcDbLine
 10
-30.2499385000001
 20
889.9999485
 30
0.0
 11
29.83398399999999
 21
889.9999485
 31
0.0
  0
LINE
  5
708
330
6ED
100
AcDbEntity
  8
実線
100
AcDbLine
 10
-30.2499385000001
 20
769.9999505
 30
0.0
 11
30.24993849999999
 21
769.9999505
 31
0.0
  0
LINE
  5
709
330
6ED
100
AcDbEntity
  8
実線
100
AcDbLine
 10
-30.2499385000001
 20
779.99995
 30
0.0
 11
30.24993849999999
 21
779.99995
 31
0.0
  0
LINE
  5
70A
330
6ED
100
AcDbEntity
  8
細線
100
AcDbLine
 10
-30.2499385000001
 20
894.9999485000001
 30
0.0
 11
30.24993849999999
 21
894.9999485000001
 31
0.0
  0
LINE
  5
70B
330
6ED
100
AcDbEntity
  8
実線
100
AcDbLine
 10
-30.2499385000001
 20
769.9999505
 30
0.0
 11
-30.2499385000001
 21
797.4999500000001
 31
0.0
  0
LINE
  5
70C
330
6ED
100
AcDbEntity
  8
実線
100
AcDbLine
 10
-27.97882049999998
 20
796.9321705000001
 30
0.0
 11
-27.97882049999998
 21
873.0678045000001
 31
0.0
  0
LINE
  5
70D
330
6ED
100
AcDbEntity
  8
実線
100
AcDbLine
 10
-50.24993800000004
 20
804.0615345
 30
0.0
 11
-50.24993800000004
 21
865.9384410000001
 31
0.0
  0
LINE
  5
70E
330
6ED
100
AcDbEntity
  8
実線
100
AcDbLine
 10
-27.97874750000005
 20
796.93217
 30
0.0
 11
-48.73505399999999
 21
802.1212465000001
 31
0.0
  0
ARC
  5
70F
330
6ED
100
AcDbEntity
  8
実線
100
AcDbCircle
 10
-48.24996850000002
 20
804.0615345
 30
0.0
 40
2.0
100
AcDbArc
 50
179.9999909999995
 51
255.9637429999988
  0
LINE
  5
710
330
6ED
100
AcDbEntity
  8
実線
100
AcDbLine
 10
-48.73511849999999
 20
867.8786875
 30
0.0
 11
-27.9788125
 21
873.0677639999999
 31
0.0
  0
ARC
  5
711
330
6ED
100
AcDbEntity
  8
実線
100
AcDbCircle
 10
-48.24996850000002
 20
865.9384410000001
 30
0.0
 40
2.0
100
AcDbArc
 50
104.036245999997
 51
180.0000049999997
  0
LINE
  5
712
330
6ED
100
AcDbEntity
  8
実線
100
AcDbLine
 10
-30.2499385000001
 20
872.4999490000001
 30
0.0
 11
-30.2499385000001
 21
894.9999485000001
 31
0.0
  0
LINE
  5
713
330
6ED
100
AcDbEntity
  8
実線
100
AcDbLine
 10
30.24993849999999
 20
769.9999505
 30
0.0
 11
30.24993849999999
 21
797.4999500000001
 31
0.0
  0
LINE
  5
714
330
6ED
100
AcDbEntity
  8
実線
100
AcDbLine
 10
15.0
 20
762.5000270000001
 30
0.0
 11
15.0
 21
747.500027
 31
0.0
  0
LINE
  5
715
330
6ED
100
AcDbEntity
  8
実線
100
AcDbLine
 10
-14.99999950000006
 20
762.5000270000001
 30
0.0
 11
-14.99999950000006
 21
747.500027
 31
0.0
  0
LINE
  5
716
330
6ED
100
AcDbEntity
  8
実線
100
AcDbLine
 10
-14.99999950000006
 20
747.500027
 30
0.0
 11
15.0
 21
747.500027
 31
0.0
  0
LINE
  5
717
330
6ED
100
AcDbEntity
  8
実線
100
AcDbLine
 10
-14.99999950000006
 20
762.5000270000001
 30
0.0
 11
15.0
 21
762.5000270000001
 31
0.0
  0
LINE
  5
718
330
6ED
100
AcDbEntity
  8
実線
100
AcDbLine
 10
36.24999949999994
 20
809.234569
 30
0.0
 11
36.24999949999994
 21
860.7654059999999
 31
0.0
  0
LINE
  5
719
330
6ED
100
AcDbEntity
  8
実線
100
AcDbLine
 10
27.97882049999998
 20
796.9321705000001
 30
0.0
 11
27.97882049999998
 21
873.0678045000001
 31
0.0
  0
LINE
  5
71A
330
6ED
100
AcDbEntity
  8
実線
100
AcDbLine
 10
27.97876199999996
 20
796.93217
 30
0.0
 11
48.7350684999999
 21
802.1212465000001
 31
0.0
  0
LINE
  5
71B
330
6ED
100
AcDbEntity
  8
実線
100
AcDbLine
 10
50.24993849999998
 20
804.0615345
 30
0.0
 11
50.24993849999998
 21
805.499904
 31
0.0
  0
ARC
  5
71C
330
6ED
100
AcDbEntity
  8
実線
100
AcDbCircle
 10
38.24996899999997
 20
809.234569
 30
0.0
 40
2.0
100
AcDbArc
 50
179.9999909999995
 51
261.8698899999994
  0
ARC
  5
71D
330
6ED
100
AcDbEntity
  8
実線
100
AcDbCircle
 10
48.24996899999996
 20
804.0615345
 30
0.0
 40
2.0
100
AcDbArc
 50
284.0362409999983
 51
0.0
  0
ARC
  5
71E
330
6ED
100
AcDbEntity
  8
実線
100
AcDbCircle
 10
48.24996899999996
 20
804.0615345
 30
0.0
 40
2.0
100
AcDbArc
 50
284.0362409999983
 51
0.0
  0
LINE
  5
71F
330
6ED
100
AcDbEntity
  8
実線
100
AcDbLine
 10
37.96714999999995
 20
807.2546615000002
 30
0.0
 11
50.24997949999999
 21
805.4999715000001
 31
0.0
  0
LINE
  5
720
330
6ED
100
AcDbEntity
  8
実線
100
AcDbLine
 10
48.73497599999996
 20
867.8786875
 30
0.0
 11
27.97881749999999
 21
873.0677270000001
 31
0.0
  0
LINE
  5
721
330
6ED
100
AcDbEntity
  8
実線
100
AcDbLine
 10
50.24993849999998
 20
864.499995
 30
0.0
 11
50.24993849999998
 21
865.9384410000001
 31
0.0
  0
ARC
  5
722
330
6ED
100
AcDbEntity
  8
実線
100
AcDbCircle
 10
38.24996899999997
 20
860.7654059999999
 30
0.0
 40
2.0
100
AcDbArc
 50
98.13010000000204
 51
180.0000049999997
  0
ARC
  5
723
330
6ED
100
AcDbEntity
  8
実線
100
AcDbCircle
 10
48.24996899999996
 20
865.9384410000001
 30
0.0
 40
2.0
100
AcDbArc
 50
0.0
 51
75.9637590000017
  0
ARC
  5
724
330
6ED
100
AcDbEntity
  8
実線
100
AcDbCircle
 10
48.24996899999996
 20
865.9384410000001
 30
0.0
 40
2.0
100
AcDbArc
 50
0.0
 51
75.9637590000017
  0
LINE
  5
725
330
6ED
100
AcDbEntity
  8
実線
100
AcDbLine
 10
37.96710549999989
 20
862.7453080000002
 30
0.0
 11
50.24993499999993
 21
864.4999979999999
 31
0.0
  0
LINE
  5
726
330
6ED
100
AcDbEntity
  8
実線
100
AcDbLine
 10
30.24993849999999
 20
872.4999490000001
 30
0.0
 11
30.24993849999999
 21
894.9999485000001
 31
0.0
  0
ARC
  5
727
330
6ED
100
AcDbEntity
  8
実線
100
AcDbCircle
 10
0.0
 20
750.0000270000001
 30
0.0
 40
149.999998
100
AcDbArc
 50
78.85386499999729
 51
101.1461340000026
  0
LINE
  5
728
330
6ED
100
AcDbEntity
  8
細線
100
AcDbLine
 10
-28.99673400000006
 20
897.1705875000001
 30
0.0
 11
28.9967345
 21
897.1705875000001
 31
0.0
  0
LINE
  5
729
330
6ED
100
AcDbEntity
  8
一点鎖線
100
AcDbLine
 10
0.0
 20
922.910562
 30
0.0
 11
0.0
 21
1091.855643
 31
0.0
  0
ARC
  5
72A
330
6ED
100
AcDbEntity
  8
細線
100
AcDbCircle
 10
0.0
 20
1254.14909
 30
0.0
 40
114.9999985
100
AcDbArc
 50
0.9167580000000347
 51
359.0831800000004
  0
LINE
  5
72B
330
6ED
100
AcDbEntity
  8
一点鎖線
100
AcDbLine
 10
0.0
 20
1385.763468
 30
0.0
 11
0.0
 21
1123.2224065
 31
0.0
  0
CIRCLE
  5
72C
330
6ED
100
AcDbEntity
  8
実線
100
AcDbCircle
 10
0.0
 20
1254.14909
 30
0.0
 40
24.9999995
  0
CIRCLE
  5
72D
330
6ED
100
AcDbEntity
  8
実線
100
AcDbCircle
 10
0.0
 20
1254.14909
 30
0.0
 40
30.2500005
  0
CIRCLE
  5
72E
330
6ED
100
AcDbEntity
  8
実線
100
AcDbCircle
 10
0.0
 20
1254.14909
 30
0.0
 40
28.25
  0
ARC
  5
72F
330
6ED
100
AcDbEntity
  8
実線
100
AcDbCircle
 10
-50.24993800000004
 20
1258.6490595
 30
0.0
 40
2.0
100
AcDbArc
 50
269.9999970000023
 51
0.0
  0
LINE
  5
730
330
6ED
100
AcDbEntity
  8
実線
100
AcDbLine
 10
-31.75003000000004
 20
1261.251293
 30
0.0
 11
-31.75003000000004
 21
1247.046734
 31
0.0
  0
LINE
  5
731
330
6ED
100
AcDbEntity
  8
実線
100
AcDbLine
 10
-50.24993800000004
 20
1262.279278
 30
0.0
 11
-50.24993800000004
 21
1256.1490595
 31
0.0
  0
LINE
  5
732
330
6ED
100
AcDbEntity
  8
実線
100
AcDbLine
 10
-33.88443050000001
 20
1245.0513385
 30
0.0
 11
-48.25007750000009
 21
1246.0188865
 31
0.0
  0
LINE
  5
733
330
6ED
100
AcDbEntity
  8
実線
100
AcDbLine
 10
-27.97889650000002
 20
1242.6490145
 30
0.0
 11
-48.38447900000005
 21
1244.0233615
 31
0.0
  0
ARC
  5
734
330
6ED
100
AcDbEntity
  8
実線
100
AcDbCircle
 10
-50.24993800000004
 20
1249.648968
 30
0.0
 40
2.0
100
AcDbArc
 50
0.0
 51
90.00000299999769
  0
ARC
  5
735
330
6ED
100
AcDbEntity
  8
実線
100
AcDbCircle
 10
-48.24996850000002
 20
1246.018902
 30
0.0
 40
2.0
100
AcDbArc
 50
179.9999909999995
 51
266.146871999999
  0
LINE
  5
736
330
6ED
100
AcDbEntity
  8
実線
100
AcDbLine
 10
-50.24993800000004
 20
1252.148968
 30
0.0
 11
-50.24993800000004
 21
1246.018902
 31
0.0
  0
LINE
  5
737
330
6ED
100
AcDbEntity
  8
一点鎖線
100
AcDbLine
 10
-50.24993800000004
 20
1256.1490595
 30
0.0
 11
-50.24993800000004
 21
1252.148968
 31
0.0
  0
LINE
  5
738
330
6ED
100
AcDbEntity
  8
実線
100
AcDbLine
 10
-48.24996850000002
 20
1246.018902
 30
0.0
 11
-48.24996850000002
 21
1249.648968
 31
0.0
  0
ARC
  5
739
330
6ED
100
AcDbEntity
  8
実線
100
AcDbCircle
 10
-33.74999950000006
 20
1247.046734
 30
0.0
 40
2.0
100
AcDbArc
 50
266.1468620000031
 51
0.0
  0
LINE
  5
73A
330
6ED
100
AcDbEntity
  8
実線
100
AcDbLine
 10
-33.88437500000009
 20
1263.2467385
 30
0.0
 11
-48.2500225
 21
1262.2791905
 31
0.0
  0
LINE
  5
73B
330
6ED
100
AcDbEntity
  8
実線
100
AcDbLine
 10
-27.978836
 20
1265.648986
 30
0.0
 11
-48.3844190000001
 21
1264.274639
 31
0.0
  0
ARC
  5
73C
330
6ED
100
AcDbEntity
  8
実線
100
AcDbCircle
 10
-48.24996850000002
 20
1262.279278
 30
0.0
 40
2.0
100
AcDbArc
 50
93.85313799999687
 51
180.0000049999997
  0
LINE
  5
73D
330
6ED
100
AcDbEntity
  8
実線
100
AcDbLine
 10
-48.24996850000002
 20
1262.279278
 30
0.0
 11
-48.24996850000002
 21
1258.6490595
 31
0.0
  0
ARC
  5
73E
330
6ED
100
AcDbEntity
  8
実線
100
AcDbCircle
 10
-33.74999950000006
 20
1261.251293
 30
0.0
 40
2.0
100
AcDbArc
 50
0.0
 51
93.85313799999687
  0
CIRCLE
  5
73F
330
6ED
100
AcDbEntity
  8
実線
100
AcDbCircle
 10
0.0
 20
1254.14909
 30
0.0
 40
19.9999995
  0
LINE
  5
740
330
6ED
100
AcDbEntity
  8
実線
100
AcDbLine
 10
50.24993849999998
 20
1262.279278
 30
0.0
 11
50.24993849999998
 21
1246.018902
 31
0.0
  0
LINE
  5
741
330
6ED
100
AcDbEntity
  8
実線
100
AcDbLine
 10
48.38439349999998
 20
1244.023436
 30
0.0
 11
27.978659
 21
1242.6490785
 31
0.0
  0
ARC
  5
742
330
6ED
100
AcDbEntity
  8
実線
100
AcDbCircle
 10
48.24996899999996
 20
1246.018902
 30
0.0
 40
2.0
100
AcDbArc
 50
273.8531389999984
 51
0.0
  0
LINE
  5
743
330
6ED
100
AcDbEntity
  8
実線
100
AcDbLine
 10
27.97875599999998
 20
1265.648988
 30
0.0
 11
48.38433850000001
 21
1264.274641
 31
0.0
  0
ARC
  5
744
330
6ED
100
AcDbEntity
  8
実線
100
AcDbCircle
 10
48.24996899999996
 20
1262.279278
 30
0.0
 40
2.0
100
AcDbArc
 50
0.0
 51
86.14686100000156
  0
POLYLINE
  5
745
330
6ED
100
AcDbEntity
  8
実線
100
AcDb2dPolyline
 66
     1
 10
0.0
 20
0.0
 30
0.0
  0
VERTEX
  5
746
330
745
100
AcDbEntity
  8
実線
100
AcDbVertex
100
AcDb2dVertex
 10
191.2381714999999
 20
1274.1490895
 30
0.0
  0
VERTEX
  5
747
330
745
100
AcDbEntity
  8
実線
100
AcDbVertex
100
AcDb2dVertex
 10
191.2381714999999
 20
1260.14909
 30
0.0
  0
VERTEX
  5
748
330
745
100
AcDbEntity
  8
実線
100
AcDbVertex
100
AcDb2dVertex
 10
178.7381714999999
 20
1257.14909
 30
0.0
  0
VERTEX
  5
749
330
745
100
AcDbEntity
  8
実線
100
AcDbVertex
100
AcDb2dVertex
 10
203.7381714999999
 20
1251.14909
 30
0.0
  0
VERTEX
  5
74A
330
745
100
AcDbEntity
  8
実線
100
AcDbVertex
100
AcDb2dVertex
 10
191.2381714999999
 20
1248.14909
 30
0.0
  0
VERTEX
  5
74B
330
745
100
AcDbEntity
  8
実線
100
AcDbVertex
100
AcDb2dVertex
 10
191.2381714999999
 20
1234.1490905
 30
0.0
  0
SEQEND
  5
74C
330
745
100
AcDbEntity
  8
実線
  0
LINE
  5
74D
330
6ED
100
AcDbEntity
  8
実線
100
AcDbLine
 10
1481.4221165
 20
769.9999505
 30
0.0
 11
1481.4221165
 21
34.99999949999998
 31
0.0
  0
LINE
  5
74E
330
6ED
100
AcDbEntity
  8
実線
100
AcDbLine
 10
1541.9219935
 20
769.9999505
 30
0.0
 11
1541.9219935
 21
34.99999949999998
 31
0.0
  0
LINE
  5
74F
330
6ED
100
AcDbEntity
  8
一点鎖線
100
AcDbLine
 10
1511.672055
 20
920.2423340000001
 30
0.0
 11
1511.672055
 21
-19.22829700000002
 31
0.0
  0
LINE
  5
750
330
6ED
100
AcDbEntity
  8
実線
100
AcDbLine
 10
1481.4221165
 20
769.9999505
 30
0.0
 11
1481.4221165
 21
34.99999949999998
 31
0.0
  0
LINE
  5
751
330
6ED
100
AcDbEntity
  8
実線
100
AcDbLine
 10
1399.6893295
 20
34.99999949999998
 30
0.0
 11
1623.65478
 21
34.99999949999998
 31
0.0
  0
LINE
  5
752
330
6ED
100
AcDbEntity
  8
実線
100
AcDbLine
 10
1634.020533
 20
-0.0000000000000284
 30
0.0
 11
1389.3235765
 21
-0.0000000000000284
 31
0.0
  0
LINE
  5
753
330
6ED
100
AcDbEntity
  8
実線
100
AcDbLine
 10
1387.400443
 20
2.549470499999969
 30
0.0
 11
1395.8431415
 21
32.09891599999997
 31
0.0
  0
ARC
  5
754
330
6ED
100
AcDbEntity
  8
実線
100
AcDbCircle
 10
1389.3235765
 20
2.000007499999981
 30
0.0
 40
2.0
100
AcDbArc
 50
164.0546040000007
 51
270.0000029999977
  0
ARC
  5
755
330
6ED
100
AcDbEntity
  8
実線
100
AcDbCircle
 10
1399.6893295
 20
31.00000349999998
 30
0.0
 40
4.0
100
AcDbArc
 50
89.9999970000023
 51
164.0546040000007
  0
LINE
  5
756
330
6ED
100
AcDbEntity
  8
実線
100
AcDbLine
 10
1635.943629499999
 20
2.549415999999979
 30
0.0
 11
1627.500931
 21
32.09886199999997
 31
0.0
  0
ARC
  5
757
330
6ED
100
AcDbEntity
  8
実線
  6
Continuous
 62
     2
100
AcDbCircle
 10
1634.020533
 20
2.000007499999981
 30
0.0
 40
2.0
100
AcDbArc
 50
269.9999989999986
 51
15.94539900000084
  0
ARC
  5
758
330
6ED
100
AcDbEntity
  8
実線
100
AcDbCircle
 10
1623.65478
 20
31.00000349999998
 30
0.0
 40
4.0
100
AcDbArc
 50
15.94539900000084
 51
89.9999970000023
  0
LINE
  5
759
330
6ED
100
AcDbEntity
  8
実線
100
AcDbLine
 10
1481.422052
 20
895.0000165
 30
0.0
 11
1482.675256
 21
897.1706299999999
 31
0.0
  0
LINE
  5
75A
330
6ED
100
AcDbEntity
  8
実線
100
AcDbLine
 10
1540.6688615
 20
897.1705645
 30
0.0
 11
1541.9220655
 21
894.9999510000001
 31
0.0
  0
LINE
  5
75B
330
6ED
100
AcDbEntity
  8
実線
100
AcDbLine
 10
1481.422059
 20
769.9999505
 30
0.0
 11
1481.422059
 21
797.4999500000001
 31
0.0
  0
LINE
  5
75C
330
6ED
100
AcDbEntity
  8
実線
100
AcDbLine
 10
1541.9220695
 20
769.9999505
 30
0.0
 11
1541.9220695
 21
797.4999500000001
 31
0.0
  0
LINE
  5
75D
330
6ED
100
AcDbEntity
  8
実線
100
AcDbLine
 10
1496.672055
 20
762.5000270000001
 30
0.0
 11
1526.6720545
 21
762.5000270000001
 31
0.0
  0
LINE
  5
75E
330
6ED
100
AcDbEntity
  8
実線
100
AcDbLine
 10
1496.672055
 20
747.500027
 30
0.0
 11
1526.6720545
 21
747.500027
 31
0.0
  0
LINE
  5
75F
330
6ED
100
AcDbEntity
  8
実線
100
AcDbLine
 10
1481.422059
 20
769.9999505
 30
0.0
 11
1541.9220695
 21
769.9999505
 31
0.0
  0
LINE
  5
760
330
6ED
100
AcDbEntity
  8
実線
100
AcDbLine
 10
1481.422059
 20
779.99995
 30
0.0
 11
1541.9220695
 21
779.99995
 31
0.0
  0
LINE
  5
761
330
6ED
100
AcDbEntity
  8
実線
100
AcDbLine
 10
1496.672055
 20
762.5000270000001
 30
0.0
 11
1496.672055
 21
747.500027
 31
0.0
  0
LINE
  5
762
330
6ED
100
AcDbEntity
  8
実線
100
AcDbLine
 10
1526.6720545
 20
762.5000270000001
 30
0.0
 11
1526.6720545
 21
747.500027
 31
0.0
  0
LINE
  5
763
330
6ED
100
AcDbEntity
  8
実線
100
AcDbLine
 10
1481.422059
 20
889.9999485
 30
0.0
 11
1541.505981499999
 21
889.9999485
 31
0.0
  0
LINE
  5
764
330
6ED
100
AcDbEntity
  8
細線
100
AcDbLine
 10
1481.422059
 20
894.9999485000001
 30
0.0
 11
1541.9220695
 21
894.9999485000001
 31
0.0
  0
LINE
  5
765
330
6ED
100
AcDbEntity
  8
細線
100
AcDbLine
 10
1439.422052
 20
809.4999955
 30
0.0
 11
1439.422052
 21
860.4999795000001
 31
0.0
  0
LINE
  5
766
330
6ED
100
AcDbEntity
  8
細線
100
AcDbLine
 10
1441.422059499999
 20
809.4999955
 30
0.0
 11
1441.422059499999
 21
860.4999795000001
 31
0.0
  0
LINE
  5
767
330
6ED
100
AcDbEntity
  8
細線
100
AcDbLine
 10
1443.422067
 20
809.4999955
 30
0.0
 11
1443.422067
 21
860.4999795000001
 31
0.0
  0
LINE
  5
768
330
6ED
100
AcDbEntity
  8
細線
100
AcDbLine
 10
1445.4220365
 20
809.4999955
 30
0.0
 11
1445.4220365
 21
860.4999795000001
 31
0.0
  0
LINE
  5
769
330
6ED
100
AcDbEntity
  8
細線
100
AcDbLine
 10
1447.4220445
 20
809.4999955
 30
0.0
 11
1447.4220445
 21
860.4999795000001
 31
0.0
  0
LINE
  5
76A
330
6ED
100
AcDbEntity
  8
細線
100
AcDbLine
 10
1449.422052
 20
809.4999955
 30
0.0
 11
1449.422052
 21
860.4999795000001
 31
0.0
  0
LINE
  5
76B
330
6ED
100
AcDbEntity
  8
実線
100
AcDbLine
 10
1437.4220445
 20
809.234569
 30
0.0
 11
1437.4220445
 21
860.7654059999999
 31
0.0
  0
LINE
  5
76C
330
6ED
100
AcDbEntity
  8
実線
100
AcDbLine
 10
1451.4220595
 20
806.6529345000001
 30
0.0
 11
1451.4220595
 21
863.3470405
 31
0.0
  0
LINE
  5
76D
330
6ED
100
AcDbEntity
  8
実線
100
AcDbLine
 10
1483.6932725
 20
796.9321705000001
 30
0.0
 11
1483.6932725
 21
873.0678045000001
 31
0.0
  0
LINE
  5
76E
330
6ED
100
AcDbEntity
  8
実線
100
AcDbLine
 10
1461.4220595
 20
804.0615345
 30
0.0
 11
1461.4220595
 21
865.9384410000001
 31
0.0
  0
LINE
  5
76F
330
6ED
100
AcDbEntity
  8
実線
100
AcDbLine
 10
1462.936995
 20
802.1212465000001
 30
0.0
 11
1483.6932645
 21
796.9321795
 31
0.0
  0
ARC
  5
770
330
6ED
100
AcDbEntity
  8
実線
100
AcDbCircle
 10
1450.4220365
 20
806.6529345000001
 30
0.0
 40
1.0
100
AcDbArc
 50
261.869899999998
 51
0.0
  0
ARC
  5
771
330
6ED
100
AcDbEntity
  8
実線
100
AcDbCircle
 10
1439.422052
 20
809.234569
 30
0.0
 40
2.0
100
AcDbArc
 50
179.9999909999995
 51
261.8698899999994
  0
LINE
  5
772
330
6ED
100
AcDbEntity
  8
細線
100
AcDbLine
 10
1437.4220445
 20
809.4999955
 30
0.0
 11
1449.422052
 21
809.4999955
 31
0.0
  0
LINE
  5
773
330
6ED
100
AcDbEntity
  8
実線
100
AcDbLine
 10
1439.139197
 20
807.2546630000001
 30
0.0
 11
1450.2806225
 21
805.6630309999999
 31
0.0
  0
ARC
  5
774
330
6ED
100
AcDbEntity
  8
実線
100
AcDbCircle
 10
1463.422067
 20
804.0615345
 30
0.0
 40
2.0
100
AcDbArc
 50
179.9999909999995
 51
255.9637429999988
  0
LINE
  5
775
330
6ED
100
AcDbEntity
  8
実線
100
AcDbLine
 10
1462.9369815
 20
867.8787395
 30
0.0
 11
1483.6932645
 21
873.0678100000002
 31
0.0
  0
ARC
  5
776
330
6ED
100
AcDbEntity
  8
実線
100
AcDbCircle
 10
1450.4220365
 20
863.3470405
 30
0.0
 40
1.0
100
AcDbArc
 50
0.0
 51
100.9172609999976
  0
LINE
  5
777
330
6ED
100
AcDbEntity
  8
細線
100
AcDbLine
 10
1437.4220445
 20
860.4999795000001
 30
0.0
 11
1451.4220595
 21
860.4999795000001
 31
0.0
  0
ARC
  5
778
330
6ED
100
AcDbEntity
  8
実線
100
AcDbCircle
 10
1439.422052
 20
860.7654059999999
 30
0.0
 40
2.0
100
AcDbArc
 50
98.13010000000204
 51
180.0000049999997
  0
LINE
  5
779
330
6ED
100
AcDbEntity
  8
実線
100
AcDbLine
 10
1439.139228
 20
862.745317
 30
0.0
 11
1450.2806345
 21
864.3369469999999
 31
0.0
  0
ARC
  5
77A
330
6ED
100
AcDbEntity
  8
実線
100
AcDbCircle
 10
1463.422067
 20
865.9384410000001
 30
0.0
 40
2.0
100
AcDbArc
 50
104.036245999997
 51
180.0000049999997
  0
LINE
  5
77B
330
6ED
100
AcDbEntity
  8
実線
100
AcDbLine
 10
1481.422059
 20
872.4999490000001
 30
0.0
 11
1481.422059
 21
894.9999485000001
 31
0.0
  0
LINE
  5
77C
330
6ED
100
AcDbEntity
  8
細線
100
AcDbLine
 10
1549.922062
 20
809.4999955
 30
0.0
 11
1549.922062
 21
860.4999795000001
 31
0.0
  0
LINE
  5
77D
330
6ED
100
AcDbEntity
  8
細線
100
AcDbLine
 10
1551.9220695
 20
809.4999955
 30
0.0
 11
1551.9220695
 21
860.4999795000001
 31
0.0
  0
LINE
  5
77E
330
6ED
100
AcDbEntity
  8
細線
100
AcDbLine
 10
1553.922058
 20
809.4999955
 30
0.0
 11
1553.922058
 21
860.4999795000001
 31
0.0
  0
LINE
  5
77F
330
6ED
100
AcDbEntity
  8
細線
100
AcDbLine
 10
1555.9220655
 20
809.4999955
 30
0.0
 11
1555.9220655
 21
860.4999795000001
 31
0.0
  0
LINE
  5
780
330
6ED
100
AcDbEntity
  8
細線
100
AcDbLine
 10
1557.922053999999
 20
809.4999955
 30
0.0
 11
1557.922053999999
 21
860.4999795000001
 31
0.0
  0
LINE
  5
781
330
6ED
100
AcDbEntity
  8
細線
100
AcDbLine
 10
1559.9220615
 20
809.4999955
 30
0.0
 11
1559.9220615
 21
860.4999795000001
 31
0.0
  0
LINE
  5
782
330
6ED
100
AcDbEntity
  8
実線
100
AcDbLine
 10
1547.922054
 20
809.234569
 30
0.0
 11
1547.922054
 21
860.7654059999999
 31
0.0
  0
LINE
  5
783
330
6ED
100
AcDbEntity
  8
実線
100
AcDbLine
 10
1561.9220695
 20
804.0615345
 30
0.0
 11
1561.9220695
 21
865.9384410000001
 31
0.0
  0
LINE
  5
784
330
6ED
100
AcDbEntity
  8
実線
100
AcDbLine
 10
1539.650856
 20
796.9321705000001
 30
0.0
 11
1539.650856
 21
873.0678045000001
 31
0.0
  0
LINE
  5
785
330
6ED
100
AcDbEntity
  8
実線
100
AcDbLine
 10
1539.650839
 20
796.9322165
 30
0.0
 11
1560.407121999999
 21
802.1212870000001
 31
0.0
  0
LINE
  5
786
330
6ED
100
AcDbEntity
  8
細線
100
AcDbLine
 10
1547.922054
 20
809.4999955
 30
0.0
 11
1559.9220615
 21
809.4999955
 31
0.0
  0
LINE
  5
787
330
6ED
100
AcDbEntity
  8
実線
100
AcDbLine
 10
1549.6391955
 20
807.254662
 30
0.0
 11
1561.922063
 21
805.4999665
 31
0.0
  0
ARC
  5
788
330
6ED
100
AcDbEntity
  8
実線
100
AcDbCircle
 10
1549.922062
 20
809.234569
 30
0.0
 40
2.0
100
AcDbArc
 50
179.9999909999995
 51
261.8698899999994
  0
ARC
  5
789
330
6ED
100
AcDbEntity
  8
実線
100
AcDbCircle
 10
1559.9220615
 20
804.0615345
 30
0.0
 40
2.0
100
AcDbArc
 50
284.0362409999983
 51
0.0
  0
ARC
  5
78A
330
6ED
100
AcDbEntity
  8
実線
100
AcDbCircle
 10
1559.9220615
 20
804.0615345
 30
0.0
 40
2.0
100
AcDbArc
 50
284.0362409999983
 51
0.0
  0
LINE
  5
78B
330
6ED
100
AcDbEntity
  8
実線
100
AcDbLine
 10
1560.4071455
 20
867.8786965
 30
0.0
 11
1539.650839
 21
873.067773
 31
0.0
  0
LINE
  5
78C
330
6ED
100
AcDbEntity
  8
細線
100
AcDbLine
 10
1547.922054
 20
860.4999795000001
 30
0.0
 11
1561.9220695
 21
860.4999795000001
 31
0.0
  0
LINE
  5
78D
330
6ED
100
AcDbEntity
  8
実線
100
AcDbLine
 10
1549.6392125
 20
862.7453165
 30
0.0
 11
1561.922056499999
 21
864.5000085000001
 31
0.0
  0
ARC
  5
78E
330
6ED
100
AcDbEntity
  8
実線
100
AcDbCircle
 10
1549.922062
 20
860.7654059999999
 30
0.0
 40
2.0
100
AcDbArc
 50
98.13010000000204
 51
180.0000049999997
  0
ARC
  5
78F
330
6ED
100
AcDbEntity
  8
実線
100
AcDbCircle
 10
1559.9220615
 20
865.9384410000001
 30
0.0
 40
2.0
100
AcDbArc
 50
0.0
 51
75.9637590000017
  0
ARC
  5
790
330
6ED
100
AcDbEntity
  8
実線
100
AcDbCircle
 10
1559.9220615
 20
865.9384410000001
 30
0.0
 40
2.0
100
AcDbArc
 50
0.0
 51
75.9637590000017
  0
LINE
  5
791
330
6ED
100
AcDbEntity
  8
実線
100
AcDbLine
 10
1541.9220695
 20
872.4999490000001
 30
0.0
 11
1541.9220695
 21
894.9999485000001
 31
0.0
  0
LINE
  5
792
330
6ED
100
AcDbEntity
  8
一点鎖線
100
AcDbLine
 10
1511.672055
 20
912.2376494999999
 30
0.0
 11
1511.672055
 21
1089.1830665
 31
0.0
  0
ARC
  5
793
330
6ED
100
AcDbEntity
  8
実線
100
AcDbCircle
 10
1511.672055
 20
750.0000270000001
 30
0.0
 40
149.999998
100
AcDbArc
 50
78.85386499999729
 51
101.1461340000026
  0
LINE
  5
794
330
6ED
100
AcDbEntity
  8
細線
100
AcDbLine
 10
1482.6752635
 20
897.1705875000001
 30
0.0
 11
1540.668864999999
 21
897.1705875000001
 31
0.0
  0
LEADER
  5
795
330
6ED
100
AcDbEntity
  8
寸法
100
AcDbLeader
  3
STANDARD
 76
     2
 10
0.0
 20
1061.876577
 30
0.0
 10
67.39463549999993
 20
1061.876577
 30
0.0
1001
ACAD
1000
LEANOF
1010
0.0
1020
0.0
1030
0.0
  0
LEADER
  5
796
330
6ED
100
AcDbEntity
  8
寸法
100
AcDbLeader
  3
STANDARD
 76
     2
 10
1511.672055
 20
1061.893064
 30
0.0
 10
1450.367338
 20
1062.4572975
 30
0.0
1001
ACAD
1000
LEANOF
1010
0.0
1020
0.0
1030
0.0
  0
LINE
  5
797
330
6ED
100
AcDbEntity
  8
寸法
100
AcDbLine
 10
64.42621999999994
 20
538.3934945
 30
0.0
 11
358.4271825
 21
538.3934945
 31
0.0
  0
TEXT
  5
798
330
6ED
100
AcDbEntity
  8
寸法
100
AcDbText
 10
86.42718349999995
 20
566.393495
 30
0.0
 40
16.0
  1
%%C６０．５×ｔ１．５　ＳＵＳ３０４
 41
0.8427419999999999
100
AcDbText
  0
TEXT
  5
799
330
6ED
100
AcDbEntity
  8
寸法
100
AcDbText
 10
86.42718349999995
 20
542.3934945
 30
0.0
 40
16.0
  1
ヘアーライン仕上げ
 41
0.8449620000000001
100
AcDbText
  0
LEADER
  5
79A
330
6ED
100
AcDbEntity
  8
寸法
100
AcDbLeader
  3
STANDARD
 76
     2
 10
30.24993849999999
 20
424.9584654999999
 30
0.0
 10
64.42621999999994
 20
538.3934945
 30
0.0
1001
ACAD
1000
LEANOF
1010
0.0
1020
0.0
1030
0.0
  0
LINE
  5
79B
330
6ED
100
AcDbEntity
  8
寸法
100
AcDbLine
 10
771.0123034999999
 20
973.434978
 30
0.0
 11
1065.013266
 21
973.434978
 31
0.0
  0
TEXT
  5
79C
330
6ED
100
AcDbEntity
  8
寸法
100
AcDbText
 10
793.0132669999998
 20
1001.4349785
 30
0.0
 40
16.0
  1
カラーベルト
 41
0.8427419999999999
100
AcDbText
  0
TEXT
  5
79D
330
6ED
100
AcDbEntity
  8
寸法
100
AcDbText
 10
793.0132669999998
 20
977.4349780000001
 30
0.0
 40
16.0
  1
（青　赤　グレーの3種類があります)
 41
0.8449620000000001
100
AcDbText
  0
LEADER
  5
79E
330
6ED
100
AcDbEntity
  8
寸法
100
AcDbLeader
  3
STANDARD
 76
     2
 10
736.8360219999999
 20
859.999949
 30
0.0
 10
771.0123034999999
 20
973.434978
 30
0.0
1001
ACAD
1000
LEANOF
1010
0.0
1020
0.0
1030
0.0
  0
ENDBLK
  5
7A0
330
6ED
100
AcDbEntity
  8
0
100
AcDbBlockEnd
  0
BLOCK
  5
88E
330
884
100
AcDbEntity
  8
0
100
AcDbBlockBegin
  2
*D10
 70
     1
 10
0.0
 20
0.0
 30
0.0
  3
*D10
  1

  0
LINE
  5
908
330
884
100
AcDbEntity
  8
AM_5
100
AcDbLine
 10
1296.523728311158
 20
1823.772811634329
 30
0.0
 11
925.9924300305268
 21
1823.772811634329
 31
0.0
  0
LINE
  5
909
330
884
100
AcDbEntity
  8
AM_5
100
AcDbLine
 10
1174.175248537076
 20
923.7727941343294
 30
0.0
 11
925.9924300305264
 21
923.7727941343294
 31
0.0
  0
LINE
  5
90A
330
884
100
AcDbEntity
  8
AM_5
100
AcDbLine
 10
935.9924300305268
 20
1798.772811634329
 30
0.0
 11
935.9924300305264
 21
948.7727941343294
 31
0.0
  0
SOLID
  5
90B
330
884
100
AcDbEntity
  8
AM_5
100
AcDbTrace
 10
931.8257633638602
 20
1798.772811634329
 30
0.0
 11
940.1590966971934
 21
1798.772811634329
 31
0.0
 12
935.9924300305268
 22
1823.772811634329
 32
0.0
 13
935.9924300305268
 23
1823.772811634329
 33
0.0
  0
SOLID
  5
90C
330
884
100
AcDbEntity
  8
AM_5
100
AcDbTrace
 10
931.8257633638598
 20
948.7727941343294
 30
0.0
 11
940.1590966971932
 21
948.7727941343294
 31
0.0
 12
935.9924300305264
 22
923.7727941343294
 32
0.0
 13
935.9924300305264
 23
923.7727941343294
 33
0.0
  0
MTEXT
  5
90D
330
884
100
AcDbEntity
  8
AM_5
 62
     2
100
AcDbMText
 10
903.4924300305263
 20
1373.772802884329
 30
0.0
 40
35.0
 41
0.0
 71
     5
 72
     1
  1
900
 11
0.0000000000000001
 21
1.0
 31
0.0
 73
     1
 44
1.0
1001
ACAD
1000
MTEXTBEGIN
1070
    73
1070
     1
1070
    44
1040
1.0
1070
    74
1070
     0
1000
MTEXTEND
  0
POINT
  5
90E
330
884
100
AcDbEntity
  8
Defpoints
 62
     0
100
AcDbPoint
 10
1306.523728311158
 20
1823.772811634329
 30
0.0
  0
POINT
  5
90F
330
884
100
AcDbEntity
  8
Defpoints
 62
     0
100
AcDbPoint
 10
1184.175248537076
 20
923.7727941343294
 30
0.0
  0
POINT
  5
910
330
884
100
AcDbEntity
  8
Defpoints
 62
     0
100
AcDbPoint
 10
935.9924300305264
 20
923.7727941343294
 30
0.0
  0
ENDBLK
  5
88F
330
884
100
AcDbEntity
  8
0
100
AcDbBlockEnd
  0
BLOCK
  5
8B6
330
8AA
100
AcDbEntity
  8
0
100
AcDbBlockBegin
  2
*D11
 70
     1
 10
0.0
 20
0.0
 30
0.0
  3
*D11
  1

  0
LINE
  5
CAD
330
8AA
100
AcDbEntity
  8
AM_5
100
AcDbLine
 10
1174.175248502169
 20
923.7727866343293
 30
0.0
 11
1042.901478421874
 21
923.7727866343293
 31
0.0
  0
LINE
  5
CAE
330
8AA
100
AcDbEntity
  8
AM_5
100
AcDbLine
 10
1182.132219452353
 20
958.7727861343292
 30
0.0
 11
1042.901478421874
 21
958.7727861343292
 31
0.0
  0
LINE
  5
CAF
330
8AA
100
AcDbEntity
  8
AM_5
100
AcDbLine
 10
1052.901478421874
 20
898.7727866343293
 30
0.0
 11
1052.901478421874
 21
873.7727866343293
 31
0.0
  0
LINE
  5
CB0
330
8AA
100
AcDbEntity
  8
AM_5
100
AcDbLine
 10
1052.901478421874
 20
983.7727861343292
 30
0.0
 11
1052.901478421874
 21
1078.722533602635
 31
0.0
  0
LINE
  5
CB1
330
8AA
100
AcDbEntity
  8
AM_5
100
AcDbLine
 10
1052.901478421874
 20
923.7727866343293
 30
0.0
 11
1052.901478421874
 21
958.7727861343292
 31
0.0
  0
SOLID
  5
CB2
330
8AA
100
AcDbEntity
  8
AM_5
100
AcDbTrace
 10
1048.734811755207
 20
898.7727866343293
 30
0.0
 11
1057.068145088541
 21
898.7727866343293
 31
0.0
 12
1052.901478421874
 22
923.7727866343293
 32
0.0
 13
1052.901478421874
 23
923.7727866343293
 33
0.0
  0
SOLID
  5
CB3
330
8AA
100
AcDbEntity
  8
AM_5
100
AcDbTrace
 10
1048.734811755207
 20
983.7727861343292
 30
0.0
 11
1057.068145088541
 21
983.7727861343292
 31
0.0
 12
1052.901478421874
 22
958.7727861343292
 32
0.0
 13
1052.901478421874
 23
958.7727861343292
 33
0.0
  0
MTEXT
  5
CB4
330
8AA
100
AcDbEntity
  8
AM_5
 62
     2
100
AcDbMText
 10
1020.401478421874
 20
1043.747659868482
 30
0.0
 40
35.0
 41
0.0
 71
     5
 72
     1
  1
35
 11
0.0000000000000001
 21
1.0
 31
0.0
 73
     1
 44
1.0
1001
ACAD
1000
MTEXTBEGIN
1070
    73
1070
     1
1070
    44
1040
1.0
1070
    74
1070
     0
1000
MTEXTEND
  0
POINT
  5
CB5
330
8AA
100
AcDbEntity
  8
Defpoints
 62
     0
100
AcDbPoint
 10
1184.17524850217
 20
923.7727866343293
 30
0.0
  0
POINT
  5
CB6
330
8AA
100
AcDbEntity
  8
Defpoints
 62
     0
100
AcDbPoint
 10
1192.132219452353
 20
958.7727861343292
 30
0.0
  0
POINT
  5
CB7
330
8AA
100
AcDbEntity
  8
Defpoints
 62
     0
100
AcDbPoint
 10
1052.901478421874
 20
958.7727861343292
 30
0.0
  0
ENDBLK
  5
8B7
330
8AA
100
AcDbEntity
  8
0
100
AcDbBlockEnd
  0
BLOCK
  5
92B
330
921
100
AcDbEntity
  8
0
100
AcDbBlockBegin
  2
*D12
 70
     1
 10
0.0
 20
0.0
 30
0.0
  3
*D12
  1

  0
LINE
  5
97E
330
921
100
AcDbEntity
  8
AM_5
100
AcDbLine
 10
1306.52372700217
 20
1854.015120634329
 30
0.0
 11
1306.52372700217
 21
2076.338855444859
 31
0.0
  0
LINE
  5
97F
330
921
100
AcDbEntity
  8
AM_5
100
AcDbLine
 10
2818.19578200217
 20
1854.015120634329
 30
0.0
 11
2818.19578200217
 21
2076.338855444859
 31
0.0
  0
LINE
  5
980
330
921
100
AcDbEntity
  8
AM_5
100
AcDbLine
 10
1331.52372700217
 20
2066.338855444859
 30
0.0
 11
2793.19578200217
 21
2066.338855444859
 31
0.0
  0
SOLID
  5
981
330
921
100
AcDbEntity
  8
AM_5
100
AcDbTrace
 10
1331.52372700217
 20
2070.505522111526
 30
0.0
 11
1331.52372700217
 21
2062.172188778193
 31
0.0
 12
1306.52372700217
 22
2066.338855444859
 32
0.0
 13
1306.52372700217
 23
2066.338855444859
 33
0.0
  0
SOLID
  5
982
330
921
100
AcDbEntity
  8
AM_5
100
AcDbTrace
 10
2793.19578200217
 20
2070.505522111526
 30
0.0
 11
2793.19578200217
 21
2062.172188778193
 31
0.0
 12
2818.19578200217
 22
2066.338855444859
 32
0.0
 13
2818.19578200217
 23
2066.338855444859
 33
0.0
  0
MTEXT
  5
983
330
921
100
AcDbEntity
  8
AM_5
 62
     2
100
AcDbMText
 10
2070.536551408082
 20
2098.83885544486
 30
0.0
 40
35.0
 41
0.0
 71
     5
 72
     1
  1
支柱ピッチ最大1800
 73
     1
 44
1.0
1001
ACAD
1000
MTEXTBEGIN
1070
    73
1070
     1
1070
    44
1040
1.0
1070
    74
1070
     0
1000
MTEXTEND
  0
POINT
  5
984
330
921
100
AcDbEntity
  8
Defpoints
 62
     0
100
AcDbPoint
 10
1306.52372700217
 20
1844.015120634329
 30
0.0
  0
POINT
  5
985
330
921
100
AcDbEntity
  8
Defpoints
 62
     0
100
AcDbPoint
 10
2818.19578200217
 20
1844.015120634329
 30
0.0
  0
POINT
  5
986
330
921
100
AcDbEntity
  8
Defpoints
 62
     0
100
AcDbPoint
 10
2818.19578200217
 20
2066.338855444859
 30
0.0
  0
ENDBLK
  5
92C
330
921
100
AcDbEntity
  8
0
100
AcDbBlockEnd
  0
BLOCK
  5
9A6
330
99C
100
AcDbEntity
  8
0
100
AcDbBlockBegin
  2
*D13
 70
     1
 10
0.0
 20
0.0
 30
0.0
  3
*D13
  1

  0
LINE
  5
D90
330
99C
100
AcDbEntity
  8
AM_5
100
AcDbLine
 10
1296.52372700217
 20
2442.502410159956
 30
0.0
 11
1042.901478421874
 21
2442.502410159956
 31
0.0
  0
LINE
  5
D91
330
99C
100
AcDbEntity
  8
AM_5
100
AcDbLine
 10
1296.52372700217
 20
2192.502414159956
 30
0.0
 11
1042.901478421874
 21
2192.502414159956
 31
0.0
  0
LINE
  5
D92
330
99C
100
AcDbEntity
  8
AM_5
100
AcDbLine
 10
1052.901478421874
 20
2417.502410159956
 30
0.0
 11
1052.901478421874
 21
2217.502414159956
 31
0.0
  0
SOLID
  5
D93
330
99C
100
AcDbEntity
  8
AM_5
100
AcDbTrace
 10
1048.734811755207
 20
2417.502410159956
 30
0.0
 11
1057.068145088541
 21
2417.502410159956
 31
0.0
 12
1052.901478421874
 22
2442.502410159956
 32
0.0
 13
1052.901478421874
 23
2442.502410159956
 33
0.0
  0
SOLID
  5
D94
330
99C
100
AcDbEntity
  8
AM_5
100
AcDbTrace
 10
1048.734811755207
 20
2217.502414159956
 30
0.0
 11
1057.068145088541
 21
2217.502414159956
 31
0.0
 12
1052.901478421874
 22
2192.502414159956
 32
0.0
 13
1052.901478421874
 23
2192.502414159956
 33
0.0
  0
MTEXT
  5
D95
330
99C
100
AcDbEntity
  8
AM_5
 62
     2
100
AcDbMText
 10
1020.398033539984
 20
2317.502412159957
 30
0.0
 40
35.0
 41
0.0
 71
     5
 72
     1
  1
φ250
 11
0.0000000000000001
 21
1.0
 31
0.0
 73
     1
 44
1.0
1001
ACAD
1000
MTEXTBEGIN
1070
    73
1070
     1
1070
    44
1040
1.0
1070
    74
1070
     0
1000
MTEXTEND
  0
POINT
  5
D96
330
99C
100
AcDbEntity
  8
Defpoints
 62
     0
100
AcDbPoint
 10
1306.52372700217
 20
2442.502410159956
 30
0.0
  0
POINT
  5
D97
330
99C
100
AcDbEntity
  8
Defpoints
 62
     0
100
AcDbPoint
 10
1306.52372700217
 20
2192.502414159956
 30
0.0
  0
POINT
  5
D98
330
99C
100
AcDbEntity
  8
Defpoints
 62
     0
100
AcDbPoint
 10
1052.901478421874
 20
2192.502414159956
 30
0.0
  0
ENDBLK
  5
9A7
330
99C
100
AcDbEntity
  8
0
100
AcDbBlockEnd
  0
BLOCK
  5
A4B
330
A4A
100
AcDbEntity
  8
0
  6
ByBlock
 62
     0
100
AcDbBlockBegin
  2
$RECT
 70
     0
 10
0.0
 20
0.0
 30
0.0
  3
$RECT
  1

  4
ICAD/MX Rectangle symbol^M^Jwidth_len : x_sacle^M^Jheight_len: y_scale
  0
LINE
  5
A4C
330
A4A
100
AcDbEntity
  8
0
  6
Continuous
 62
     0
100
AcDbLine
 10
-0.5
 20
0.5
 30
0.0
 11
-0.5
 21
-0.5
 31
0.0
  0
LINE
  5
A4D
330
A4A
100
AcDbEntity
  8
0
  6
Continuous
 62
     0
100
AcDbLine
 10
-0.5
 20
-0.5
 30
0.0
 11
0.5
 21
-0.5
 31
0.0
  0
LINE
  5
A4E
330
A4A
100
AcDbEntity
  8
0
  6
Continuous
 62
     0
100
AcDbLine
 10
0.5
 20
-0.5
 30
0.0
 11
0.5
 21
0.5
 31
0.0
  0
LINE
  5
A4F
330
A4A
100
AcDbEntity
  8
0
  6
Continuous
 62
     0
100
AcDbLine
 10
0.5
 20
0.5
 30
0.0
 11
-0.5
 21
0.5
 31
0.0
  0
ENDBLK
  5
A50
330
A4A
100
AcDbEntity
  8
0
  6
ByBlock
 62
     0
100
AcDbBlockEnd
  0
BLOCK
  5
CE3
330
CDE
100
AcDbEntity
  8
0
100
AcDbBlockBegin
  2
*S15
 70
     1
 10
0.0
 20
0.0
 30
0.0
  3
*S15
  1

  0
LINE
  5
CDF
330
CDE
100
AcDbEntity
  8
AM_5
100
AcDbLine
 10
1845.154436277891
 20
1339.4107321559
 30
0.0
 11
1377.904436277891
 21
1339.4107321559
 31
0.0
  0
LINE
  5
CE0
330
CDE
100
AcDbEntity
  8
AM_5
100
AcDbLine
 10
1377.904436277891
 20
1339.4107321559
 30
0.0
 11
1350.313474972448
 21
1273.641904668098
 31
0.0
  0
TRACE
  5
CE1
330
CDE
100
AcDbEntity
  8
AM_5
100
AcDbTrace
 10
1346.064394844433
 20
1275.424454393764
 30
0.0
 11
1354.562555100462
 21
1271.859354942431
 31
0.0
 12
1336.77366550217
 22
1241.366936666431
 32
0.0
 13
1336.77366550217
 23
1241.366936666431
 33
0.0
  0
MTEXT
  5
CE2
330
CDE
100
AcDbEntity
  8
AM_5
 62
     2
100
AcDbMText
 10
1412.904436277891
 20
1356.9107321559
 30
0.0
 40
35.0
 41
0.0
 71
     7
 72
     5
  1
φ60.5×t1.5　SUS304\P　ヘアーライン仕上げ
  7
ACISOTS
 73
     1
 44
1.0
1001
ACAD
1000
MTEXTBEGIN
1070
    73
1070
     1
1070
    44
1040
1.0
1070
    74
1070
     0
1000
MTEXTEND
  0
ENDBLK
  5
CE4
330
CDE
100
AcDbEntity
  8
0
100
AcDbBlockEnd
  0
BLOCK
  5
CEB
330
CE6
100
AcDbEntity
  8
0
100
AcDbBlockBegin
  2
*S16
 70
     1
 10
0.0
 20
0.0
 30
0.0
  3
*S16
  1

  0
LINE
  5
CE7
330
CE6
100
AcDbEntity
  8
AM_5
100
AcDbLine
 10
1914.925400140325
 20
2528.24211813338
 30
0.0
 11
1385.842066806992
 21
2528.24211813338
 31
0.0
  0
LINE
  5
CE8
330
CE6
100
AcDbEntity
  8
AM_5
100
AcDbLine
 10
1385.842066806992
 20
2528.24211813338
 30
0.0
 11
1320.342937157239
 21
2398.973316355248
 31
0.0
  0
TRACE
  5
CE9
330
CE6
100
AcDbEntity
  8
AM_5
100
AcDbTrace
 10
1316.232618998876
 20
2401.055970934336
 30
0.0
 11
1324.453255315602
 21
2396.890661776161
 31
0.0
 12
1304.52360500217
 22
2367.752350159956
 32
0.0
 13
1304.52360500217
 23
2367.752350159956
 33
0.0
  0
MTEXT
  5
CEA
330
CE6
100
AcDbEntity
  8
AM_5
 62
     2
100
AcDbMText
 10
1420.842066806992
 20
2545.742118133381
 30
0.0
 40
35.0
 41
0.0
 71
     7
 72
     5
  1
３方向よりツマミ取付可能
  7
ACISOTS
 73
     1
 44
1.0
1001
ACAD
1000
MTEXTBEGIN
1070
    73
1070
     1
1070
    44
1040
1.0
1070
    74
1070
     0
1000
MTEXTEND
  0
ENDBLK
  5
CEC
330
CE6
100
AcDbEntity
  8
0
100
AcDbBlockEnd
  0
ENDSEC
  0
SECTION
  2
ENTITIES
  0
INSERT
  5
2F6
330
1F
100
AcDbEntity
  8
AM_0
370
     0
100
AcDbBlockReference
  2
帝金図面用紙HP用
 10
0.0
 20
0.0
 30
0.0
 41
10.0
 42
10.0
 43
10.0
1001
GENIUS_GENOREF_13
1005
50D
1001
GENIUS_GENOBJ-N-SDF_13
1002
{
1000
OWNER
1000
GEN
1002
}
1001
GENIUS_GENODEF_13
1002
{
1000
HIER
1070
     0
1002
}
1002
{
1000
MANEDIT
1070
     0
1002
}
1002
{
1000
NOSEL
1070
     0
1002
}
1002
{
1000
BEHIND
1070
     0
1002
}
1002
{
1000
OTHER
1070
     0
1002
}
1002
{
1000
REACTOR
1002
}
1001
GENIUS_GENSCREG_15
1040
10.0
1040
1.0
1011
19.99999999999994
1021
15.0
1031
0.0
1011
3870.0
1021
2685.0
1031
0.0
1070
     3
  0
INSERT
  5
507
330
1F
100
AcDbEntity
  8
AM_0
370
     0
100
AcDbBlockReference
 66
     1
  2
表題HP用
 10
4049.999999999999
 20
150.0
 30
0.0
 41
10.0
 42
10.0
 43
10.0
1001
GENIUS_GENOREF_13
1005
50D
  0
ATTRIB
  5
7A9
330
507
100
AcDbEntity
  8
AM_BOR
370
    13
100
AcDbText
 10
2875.003431990592
 20
179.9999976028585
 30
0.0
 40
35.0
  1
S61-NU-3WAY
  7
スタイル1
100
AcDbAttribute
  2
GEN-TITLE-DWG
 70
     0
  0
ATTRIB
  5
7AA
330
507
100
AcDbEntity
  8
AM_BOR
370
    13
100
AcDbText
 10
2022.475071281896
 20
179.9999976028586
 30
0.0
 40
35.0
  1
2008/11/06
  7
スタイル1
100
AcDbAttribute
  2
GEN-TITLE-DAT
 70
     0
  0
ATTRIB
  5
7AB
330
507
100
AcDbEntity
  8
AM_BOR
370
    13
100
AcDbText
 10
2461.572136927042
 20
179.9999976028585
 30
0.0
 40
35.0
  1
1:10
  7
スタイル1
100
AcDbAttribute
  2
GEN-TITLE-SCA
 70
     0
  0
SEQEND
  5
7A8
330
507
100
AcDbEntity
  8
AM_0
370
     0
  0
POINT
  5
50D
330
1F
100
AcDbEntity
  8
0
 60
     1
100
AcDbPoint
 10
0.0
 20
0.0
 30
0.0
1001
GENIUS_GENODEF_13
1002
{
1000
HIER
1070
     1
1002
}
1002
{
1000
MANEDIT
1070
     0
1002
}
1002
{
1000
NOSEL
1070
     0
1002
}
1002
{
1000
BEHIND
1070
     0
1002
}
1002
{
1000
OTHER
1070
     0
1002
}
1002
{
1000
REACTOR
1002
}
1001
GENIUS_GENOBJ-N-TIT_13
1002
{
1000
OWNER
1000
GEN
1002
}
1001
GENIUS_GENOENT_13
1002
{
1000
MYREF
1005
50D
1002
}
1002
{
1000
GRP
1005
0
1002
}
1001
GENIUS_GENOLIS_13
1002
{
1000
ENT
1005
507
1005
2F6
1005
7A7
1002
}
1001
GENIUS_GENTITLE_13
1002
{
1000
BORDER
1000
帝金図面用紙HP用
1002
}
1002
{
1000
TITLE
1000
表題HP用
1002
}
1002
{
1000
SCALE
1000
1:10
1002
}
1002
{
1000
TITLESTD
1000
ISO
1002
}
1002
{
1000
HRA
1005
2F6
1002
}
1002
{
1000
HTIT
1005
507
1002
}
1002
{
1000
GENIUSID
1005
50D
1002
}
1002
{
1000
INVTXTID
1005
0
1002
}
1002
{
1000
UNCHG
1002
{
1000
GEN-TITLE-SIZ
1000
GEN-TITLE-SCA
1002
}
1002
}
  0
LINE
  5
7B0
330
1F
100
AcDbEntity
  8
実線
100
AcDbLine
 10
1342.773726502169
 20
1733.772736634329
 30
0.0
 11
2743.94577150217
 21
1733.772736634329
 31
0.0
  0
LINE
  5
7B1
330
1F
100
AcDbEntity
  8
実線
100
AcDbLine
 10
1342.773726502169
 20
1783.772735634329
 30
0.0
 11
2743.94577150217
 21
1783.772735634329
 31
0.0
  0
LINE
  5
7B2
330
1F
100
AcDbEntity
  8
中心線
100
AcDbLine
 10
1211.85835400217
 20
1758.772736134329
 30
0.0
 11
2898.23673150217
 21
1758.772736134329
 31
0.0
  0
LINE
  5
7B4
330
1F
100
AcDbEntity
  8
実線
100
AcDbLine
 10
1336.77366550217
 20
1693.772737134329
 30
0.0
 11
1336.77366550217
 21
958.7727861343292
 31
0.0
  0
LINE
  5
7B5
330
1F
100
AcDbEntity
  8
実線
100
AcDbLine
 10
1276.27378850217
 20
1693.772737134329
 30
0.0
 11
1276.27378850217
 21
958.7727861343292
 31
0.0
  0
LINE
  5
7B6
330
1F
100
AcDbEntity
  8
実線
100
AcDbLine
 10
1336.77366550217
 20
1693.772737134329
 30
0.0
 11
1336.77366550217
 21
958.7727861343292
 31
0.0
  0
LINE
  5
7B7
330
1F
100
AcDbEntity
  8
中心線
100
AcDbLine
 10
1306.52372700217
 20
1844.015120634329
 30
0.0
 11
1306.52372700217
 21
885.9792376343293
 31
0.0
  0
ARC
  5
7B8
330
1F
100
AcDbEntity
  8
実線
100
AcDbCircle
 10
1428.87220550217
 20
925.7727941343294
 30
0.0
 40
2.0
100
AcDbArc
 50
269.9999970000023
 51
15.94539599999875
  0
LINE
  5
7B9
330
1F
100
AcDbEntity
  8
実線
100
AcDbLine
 10
1182.25215250217
 20
926.3222026343292
 30
0.0
 11
1190.694850502169
 21
955.8716486343293
 31
0.0
  0
LINE
  5
7BA
330
1F
100
AcDbEntity
  8
実線
100
AcDbLine
 10
1430.79533900217
 20
926.3222571343293
 30
0.0
 11
1422.35264050217
 21
955.8717026343293
 31
0.0
  0
LINE
  5
7BB
330
1F
100
AcDbEntity
  8
実線
100
AcDbLine
 10
1184.17524850217
 20
923.7727866343293
 30
0.0
 11
1428.87220550217
 21
923.7727866343293
 31
0.0
  0
ARC
  5
7BC
330
1F
100
AcDbEntity
  8
実線
100
AcDbCircle
 10
1184.17524850217
 20
925.7727941343294
 30
0.0
 40
2.0
100
AcDbArc
 50
164.0546009999999
 51
270.0000009999949
  0
LINE
  5
7BD
330
1F
100
AcDbEntity
  8
実線
100
AcDbLine
 10
1418.50645250217
 20
958.7727861343292
 30
0.0
 11
1194.54100150217
 21
958.7727861343292
 31
0.0
  0
ARC
  5
7BE
330
1F
100
AcDbEntity
  8
実線
100
AcDbCircle
 10
1194.54100150217
 20
954.7727901343293
 30
0.0
 40
4.0
100
AcDbArc
 50
90.00000299999769
 51
164.0546009999999
  0
ARC
  5
7BF
330
1F
100
AcDbEntity
  8
実線
100
AcDbCircle
 10
1418.50645250217
 20
954.7727901343293
 30
0.0
 40
4.0
100
AcDbArc
 50
15.94539599999875
 51
90.00000299999769
  0
ARC
  5
7C0
102
{ACAD_REACTORS
330
9A9
102
}
330
1F
100
AcDbEntity
  8
実線
100
AcDbCircle
 10
1306.52372700217
 20
2317.502412159956
 30
0.0
 40
124.999998
100
AcDbArc
 50
0.916758000003187
 51
359.0831799999979
  0
LINE
  5
7C1
330
1F
100
AcDbEntity
  8
実線
100
AcDbLine
 10
1356.77366550217
 20
2315.502290159956
 30
0.0
 11
1497.76189850217
 21
2315.502290159956
 31
0.0
  0
LINE
  5
7C2
330
1F
100
AcDbEntity
  8
実線
100
AcDbLine
 10
1356.77366550217
 20
2319.502381659956
 30
0.0
 11
1497.76189850217
 21
2319.502381659956
 31
0.0
  0
LINE
  5
7C3
330
1F
100
AcDbEntity
  8
中心線
100
AcDbLine
 10
1171.03865200217
 20
2317.502412159956
 30
0.0
 11
1503.59060350217
 21
2317.502412159956
 31
0.0
  0
LINE
  5
7C4
330
1F
100
AcDbEntity
  8
実線
100
AcDbLine
 10
1276.273708002169
 20
1818.772791134329
 30
0.0
 11
1277.52690750217
 21
1820.943396634329
 31
0.0
  0
LINE
  5
7C5
330
1F
100
AcDbEntity
  8
実線
100
AcDbLine
 10
1335.52056950217
 20
1820.943348634329
 30
0.0
 11
1336.77377400217
 21
1818.772735134329
 31
0.0
  0
LINE
  5
7C6
330
1F
100
AcDbEntity
  8
実線
100
AcDbLine
 10
1276.27378850217
 20
1813.772735134329
 30
0.0
 11
1336.35771100217
 21
1813.772735134329
 31
0.0
  0
LINE
  5
7C7
330
1F
100
AcDbEntity
  8
実線
100
AcDbLine
 10
1276.27378850217
 20
1693.772737134329
 30
0.0
 11
1336.77366550217
 21
1693.772737134329
 31
0.0
  0
LINE
  5
7C8
330
1F
100
AcDbEntity
  8
実線
100
AcDbLine
 10
1276.27378850217
 20
1703.772736634329
 30
0.0
 11
1336.77366550217
 21
1703.772736634329
 31
0.0
  0
LINE
  5
7CA
330
1F
100
AcDbEntity
  8
実線
100
AcDbLine
 10
1276.27378850217
 20
1693.772737134329
 30
0.0
 11
1276.27378850217
 21
1721.272736634329
 31
0.0
  0
LINE
  5
7CB
330
1F
100
AcDbEntity
  8
実線
100
AcDbLine
 10
1278.54490650217
 20
1720.70495713433
 30
0.0
 11
1278.54490650217
 21
1796.840591134329
 31
0.0
  0
LINE
  5
7CC
330
1F
100
AcDbEntity
  8
実線
100
AcDbLine
 10
1256.27378900217
 20
1727.834321134329
 30
0.0
 11
1256.27378900217
 21
1789.711227634329
 31
0.0
  0
LINE
  5
7CD
330
1F
100
AcDbEntity
  8
実線
100
AcDbLine
 10
1278.54497950217
 20
1720.704956634329
 30
0.0
 11
1257.78867300217
 21
1725.894033134329
 31
0.0
  0
ARC
  5
7CE
330
1F
100
AcDbEntity
  8
実線
100
AcDbCircle
 10
1258.27375850217
 20
1727.834321134329
 30
0.0
 40
2.0
100
AcDbArc
 50
179.9999910000004
 51
255.9637429999992
  0
LINE
  5
7CF
330
1F
100
AcDbEntity
  8
実線
100
AcDbLine
 10
1257.78860850217
 20
1791.651474134329
 30
0.0
 11
1278.54491450217
 21
1796.840550634329
 31
0.0
  0
ARC
  5
7D0
330
1F
100
AcDbEntity
  8
実線
100
AcDbCircle
 10
1258.27375850217
 20
1789.711227634329
 30
0.0
 40
2.0
100
AcDbArc
 50
104.0362459999968
 51
180.0000050000005
  0
LINE
  5
7D1
330
1F
100
AcDbEntity
  8
実線
100
AcDbLine
 10
1276.27378850217
 20
1796.272735634329
 30
0.0
 11
1276.27378850217
 21
1818.772735134329
 31
0.0
  0
LINE
  5
7D2
330
1F
100
AcDbEntity
  8
実線
100
AcDbLine
 10
1336.77366550217
 20
1693.772737134329
 30
0.0
 11
1336.77366550217
 21
1721.272736634329
 31
0.0
  0
LINE
  5
7D3
330
1F
100
AcDbEntity
  8
実線
100
AcDbLine
 10
1321.52372700217
 20
1686.272813634329
 30
0.0
 11
1321.52372700217
 21
1671.272813634329
 31
0.0
  0
LINE
  5
7D4
330
1F
100
AcDbEntity
  8
実線
100
AcDbLine
 10
1291.52372750217
 20
1686.272813634329
 30
0.0
 11
1291.52372750217
 21
1671.272813634329
 31
0.0
  0
LINE
  5
7D5
330
1F
100
AcDbEntity
  8
実線
100
AcDbLine
 10
1291.52372750217
 20
1671.272813634329
 30
0.0
 11
1321.52372700217
 21
1671.272813634329
 31
0.0
  0
LINE
  5
7D6
330
1F
100
AcDbEntity
  8
実線
100
AcDbLine
 10
1291.52372750217
 20
1686.272813634329
 30
0.0
 11
1321.52372700217
 21
1686.272813634329
 31
0.0
  0
LINE
  5
7D7
330
1F
100
AcDbEntity
  8
実線
100
AcDbLine
 10
1342.773726502169
 20
1733.007355634329
 30
0.0
 11
1342.773726502169
 21
1784.538192634329
 31
0.0
  0
LINE
  5
7D8
330
1F
100
AcDbEntity
  8
実線
100
AcDbLine
 10
1334.50254750217
 20
1720.70495713433
 30
0.0
 11
1334.50254750217
 21
1796.840591134329
 31
0.0
  0
LINE
  5
7D9
330
1F
100
AcDbEntity
  8
実線
100
AcDbLine
 10
1334.50248900217
 20
1720.704956634329
 30
0.0
 11
1355.25879550217
 21
1725.894033134329
 31
0.0
  0
LINE
  5
7DA
330
1F
100
AcDbEntity
  8
実線
100
AcDbLine
 10
1356.77366550217
 20
1727.834321134329
 30
0.0
 11
1356.77366550217
 21
1729.272690634329
 31
0.0
  0
ARC
  5
7DB
330
1F
100
AcDbEntity
  8
実線
100
AcDbCircle
 10
1344.77369600217
 20
1733.007355634329
 30
0.0
 40
2.0
100
AcDbArc
 50
179.9999910000004
 51
261.8698899999926
  0
ARC
  5
7DC
330
1F
100
AcDbEntity
  8
実線
100
AcDbCircle
 10
1354.77369600217
 20
1727.834321134329
 30
0.0
 40
2.0
100
AcDbArc
 50
284.0362410000048
 51
0.0
  0
ARC
  5
7DD
330
1F
100
AcDbEntity
  8
実線
100
AcDbCircle
 10
1354.77369600217
 20
1727.834321134329
 30
0.0
 40
2.0
100
AcDbArc
 50
284.0362410000048
 51
0.0
  0
LINE
  5
7DE
330
1F
100
AcDbEntity
  8
実線
100
AcDbLine
 10
1344.49087700217
 20
1731.027448134329
 30
0.0
 11
1356.77370650217
 21
1729.272758134329
 31
0.0
  0
LINE
  5
7DF
330
1F
100
AcDbEntity
  8
実線
100
AcDbLine
 10
1355.25870300217
 20
1791.651474134329
 30
0.0
 11
1334.50254450217
 21
1796.840513634329
 31
0.0
  0
LINE
  5
7E0
330
1F
100
AcDbEntity
  8
実線
100
AcDbLine
 10
1356.77366550217
 20
1788.272781634329
 30
0.0
 11
1356.77366550217
 21
1789.711227634329
 31
0.0
  0
ARC
  5
7E1
330
1F
100
AcDbEntity
  8
実線
100
AcDbCircle
 10
1344.77369600217
 20
1784.538192634329
 30
0.0
 40
2.0
100
AcDbArc
 50
98.13009999999527
 51
180.0000050000005
  0
ARC
  5
7E2
330
1F
100
AcDbEntity
  8
実線
100
AcDbCircle
 10
1354.77369600217
 20
1789.711227634329
 30
0.0
 40
2.0
100
AcDbArc
 50
0.0
 51
75.96375899999518
  0
ARC
  5
7E3
330
1F
100
AcDbEntity
  8
実線
100
AcDbCircle
 10
1354.77369600217
 20
1789.711227634329
 30
0.0
 40
2.0
100
AcDbArc
 50
0.0
 51
75.96375899999518
  0
LINE
  5
7E4
330
1F
100
AcDbEntity
  8
実線
100
AcDbLine
 10
1344.49083250217
 20
1786.518094634329
 30
0.0
 11
1356.773662002169
 21
1788.272784634329
 31
0.0
  0
LINE
  5
7E5
330
1F
100
AcDbEntity
  8
実線
100
AcDbLine
 10
1336.77366550217
 20
1796.272735634329
 30
0.0
 11
1336.77366550217
 21
1818.772735134329
 31
0.0
  0
ARC
  5
7E6
330
1F
100
AcDbEntity
  8
実線
100
AcDbCircle
 10
1306.52372700217
 20
1673.772813634329
 30
0.0
 40
149.999998
100
AcDbArc
 50
78.85386500000399
 51
101.1461340000027
  0
ARC
  5
7E9
330
1F
100
AcDbEntity
  8
細線
100
AcDbCircle
 10
1306.52372700217
 20
2317.502412159956
 30
0.0
 40
114.9999985
100
AcDbArc
 50
0.916758000003187
 51
359.0831799999979
  0
LINE
  5
7EA
330
1F
100
AcDbEntity
  8
中心線
100
AcDbLine
 10
1306.52372700217
 20
2449.116790159956
 30
0.0
 11
1306.52372700217
 21
2186.575728659956
 31
0.0
  0
CIRCLE
  5
7EB
330
1F
100
AcDbEntity
  8
実線
100
AcDbCircle
 10
1306.52372700217
 20
2317.502412159956
 30
0.0
 40
24.9999995
  0
CIRCLE
  5
7EC
330
1F
100
AcDbEntity
  8
実線
100
AcDbCircle
 10
1306.52372700217
 20
2317.502412159956
 30
0.0
 40
30.2500005
  0
CIRCLE
  5
7ED
330
1F
100
AcDbEntity
  8
実線
100
AcDbCircle
 10
1306.52372700217
 20
2317.502412159956
 30
0.0
 40
28.25
  0
ARC
  5
7EE
330
1F
100
AcDbEntity
  8
実線
100
AcDbCircle
 10
1256.27378900217
 20
2322.002381659956
 30
0.0
 40
2.0
100
AcDbArc
 50
269.9999970000023
 51
0.0
  0
LINE
  5
7EF
330
1F
100
AcDbEntity
  8
実線
100
AcDbLine
 10
1274.773697002169
 20
2324.604615159956
 30
0.0
 11
1274.773697002169
 21
2310.400056159956
 31
0.0
  0
LINE
  5
7F0
330
1F
100
AcDbEntity
  8
実線
100
AcDbLine
 10
1256.27378900217
 20
2325.632600159956
 30
0.0
 11
1256.27378900217
 21
2315.502290159956
 31
0.0
  0
LINE
  5
7F1
330
1F
100
AcDbEntity
  8
実線
100
AcDbLine
 10
1272.63929650217
 20
2308.404660659956
 30
0.0
 11
1258.27364950217
 21
2309.372208659956
 31
0.0
  0
LINE
  5
7F2
330
1F
100
AcDbEntity
  8
実線
100
AcDbLine
 10
1278.54483050217
 20
2306.002336659956
 30
0.0
 11
1258.13924800217
 21
2307.376683659956
 31
0.0
  0
ARC
  5
7F3
330
1F
100
AcDbEntity
  8
実線
100
AcDbCircle
 10
1256.27378900217
 20
2313.002290159956
 30
0.0
 40
2.0
100
AcDbArc
 50
0.0
 51
90.00000299999769
  0
ARC
  5
7F4
330
1F
100
AcDbEntity
  8
実線
100
AcDbCircle
 10
1258.27375850217
 20
2309.372224159956
 30
0.0
 40
2.0
100
AcDbArc
 50
179.9999910000004
 51
266.146871999999
  0
LINE
  5
7F5
330
1F
100
AcDbEntity
  8
実線
100
AcDbLine
 10
1256.27378900217
 20
2315.502290159956
 30
0.0
 11
1256.27378900217
 21
2309.372224159956
 31
0.0
  0
LINE
  5
7F7
330
1F
100
AcDbEntity
  8
実線
100
AcDbLine
 10
1258.27375850217
 20
2309.372224159956
 30
0.0
 11
1258.27375850217
 21
2313.002290159956
 31
0.0
  0
ARC
  5
7F8
330
1F
100
AcDbEntity
  8
実線
100
AcDbCircle
 10
1272.773727502169
 20
2310.400056159956
 30
0.0
 40
2.0
100
AcDbArc
 50
266.1468619999965
 51
0.0
  0
LINE
  5
7F9
330
1F
100
AcDbEntity
  8
実線
100
AcDbLine
 10
1272.63935200217
 20
2326.600060659956
 30
0.0
 11
1258.27370450217
 21
2325.632512659956
 31
0.0
  0
LINE
  5
7FA
330
1F
100
AcDbEntity
  8
実線
100
AcDbLine
 10
1278.54489100217
 20
2329.002308159956
 30
0.0
 11
1258.13930800217
 21
2327.627961159956
 31
0.0
  0
ARC
  5
7FB
330
1F
100
AcDbEntity
  8
実線
100
AcDbCircle
 10
1258.27375850217
 20
2325.632600159956
 30
0.0
 40
2.0
100
AcDbArc
 50
93.85313800000353
 51
180.0000050000005
  0
LINE
  5
7FC
330
1F
100
AcDbEntity
  8
実線
100
AcDbLine
 10
1258.27375850217
 20
2325.632600159956
 30
0.0
 11
1258.27375850217
 21
2322.002381659956
 31
0.0
  0
ARC
  5
7FD
330
1F
100
AcDbEntity
  8
実線
100
AcDbCircle
 10
1272.773727502169
 20
2324.604615159956
 30
0.0
 40
2.0
100
AcDbArc
 50
0.0
 51
93.85313800000353
  0
CIRCLE
  5
7FE
330
1F
100
AcDbEntity
  8
実線
100
AcDbCircle
 10
1306.52372700217
 20
2317.502412159956
 30
0.0
 40
19.9999995
  0
LINE
  5
7FF
330
1F
100
AcDbEntity
  8
実線
100
AcDbLine
 10
1356.77366550217
 20
2325.632600159956
 30
0.0
 11
1356.77366550217
 21
2309.372224159956
 31
0.0
  0
LINE
  5
800
330
1F
100
AcDbEntity
  8
実線
100
AcDbLine
 10
1354.90812050217
 20
2307.376758159956
 30
0.0
 11
1334.50238600217
 21
2306.002400659956
 31
0.0
  0
ARC
  5
801
330
1F
100
AcDbEntity
  8
実線
100
AcDbCircle
 10
1354.77369600217
 20
2309.372224159956
 30
0.0
 40
2.0
100
AcDbArc
 50
273.8531389999919
 51
0.0
  0
LINE
  5
802
330
1F
100
AcDbEntity
  8
実線
100
AcDbLine
 10
1334.50248300217
 20
2329.002310159956
 30
0.0
 11
1354.90806550217
 21
2327.627963159956
 31
0.0
  0
ARC
  5
803
330
1F
100
AcDbEntity
  8
実線
100
AcDbCircle
 10
1354.77369600217
 20
2325.632600159956
 30
0.0
 40
2.0
100
AcDbArc
 50
0.0
 51
86.14686099999513
  0
POLYLINE
  5
804
330
1F
100
AcDbEntity
  8
実線
100
AcDb2dPolyline
 66
     1
 10
0.0
 20
0.0
 30
0.0
  0
VERTEX
  5
805
330
804
100
AcDbEntity
  8
実線
100
AcDbVertex
100
AcDb2dVertex
 10
1497.76189850217
 20
2337.502411659956
 30
0.0
  0
VERTEX
  5
806
330
804
100
AcDbEntity
  8
実線
100
AcDbVertex
100
AcDb2dVertex
 10
1497.76189850217
 20
2323.502412159956
 30
0.0
  0
VERTEX
  5
807
330
804
100
AcDbEntity
  8
実線
100
AcDbVertex
100
AcDb2dVertex
 10
1485.26189850217
 20
2320.502412159956
 30
0.0
  0
VERTEX
  5
808
330
804
100
AcDbEntity
  8
実線
100
AcDbVertex
100
AcDb2dVertex
 10
1510.26189850217
 20
2314.502412159956
 30
0.0
  0
VERTEX
  5
809
330
804
100
AcDbEntity
  8
実線
100
AcDbVertex
100
AcDb2dVertex
 10
1497.76189850217
 20
2311.502412159956
 30
0.0
  0
VERTEX
  5
80A
330
804
100
AcDbEntity
  8
実線
100
AcDbVertex
100
AcDb2dVertex
 10
1497.76189850217
 20
2297.502412659956
 30
0.0
  0
SEQEND
  5
80B
330
804
100
AcDbEntity
  8
実線
  0
LINE
  5
80C
330
1F
100
AcDbEntity
  8
実線
100
AcDbLine
 10
2787.94584350217
 20
1693.772737134329
 30
0.0
 11
2787.94584350217
 21
958.7727861343292
 31
0.0
  0
LINE
  5
80D
330
1F
100
AcDbEntity
  8
実線
100
AcDbLine
 10
2848.44572050217
 20
1693.772737134329
 30
0.0
 11
2848.44572050217
 21
958.7727861343292
 31
0.0
  0
LINE
  5
80E
330
1F
100
AcDbEntity
  8
中心線
100
AcDbLine
 10
2818.19578200217
 20
1844.015120634329
 30
0.0
 11
2818.19578200217
 21
904.5444896343294
 31
0.0
  0
LINE
  5
80F
330
1F
100
AcDbEntity
  8
実線
100
AcDbLine
 10
2787.94584350217
 20
1693.772737134329
 30
0.0
 11
2787.94584350217
 21
958.7727861343292
 31
0.0
  0
LINE
  5
810
330
1F
100
AcDbEntity
  8
実線
100
AcDbLine
 10
2706.21305650217
 20
958.7727861343292
 30
0.0
 11
2930.17850700217
 21
958.7727861343292
 31
0.0
  0
LINE
  5
811
330
1F
100
AcDbEntity
  8
実線
100
AcDbLine
 10
2940.54426000217
 20
923.7727866343293
 30
0.0
 11
2695.84730350217
 21
923.7727866343293
 31
0.0
  0
LINE
  5
812
330
1F
100
AcDbEntity
  8
実線
100
AcDbLine
 10
2693.92417000217
 20
926.3222571343293
 30
0.0
 11
2702.36686850217
 21
955.8717026343293
 31
0.0
  0
ARC
  5
813
330
1F
100
AcDbEntity
  8
実線
100
AcDbCircle
 10
2695.84730350217
 20
925.7727941343294
 30
0.0
 40
2.0
100
AcDbArc
 50
164.0546040000012
 51
270.0000029999977
  0
ARC
  5
814
330
1F
100
AcDbEntity
  8
実線
100
AcDbCircle
 10
2706.21305650217
 20
954.7727901343293
 30
0.0
 40
4.0
100
AcDbArc
 50
89.9999970000023
 51
164.0546040000012
  0
LINE
  5
815
330
1F
100
AcDbEntity
  8
実線
100
AcDbLine
 10
2942.46735650217
 20
926.3222026343292
 30
0.0
 11
2934.02465800217
 21
955.8716486343293
 31
0.0
  0
ARC
  5
816
330
1F
100
AcDbEntity
  8
実線
  6
Continuous
 62
     2
100
AcDbCircle
 10
2940.54426000217
 20
925.7727941343294
 30
0.0
 40
2.0
100
AcDbArc
 50
269.9999989999921
 51
15.94539900000005
  0
ARC
  5
817
330
1F
100
AcDbEntity
  8
実線
100
AcDbCircle
 10
2930.17850700217
 20
954.7727901343293
 30
0.0
 40
4.0
100
AcDbArc
 50
15.94539900000005
 51
89.9999970000023
  0
LINE
  5
818
330
1F
100
AcDbEntity
  8
実線
100
AcDbLine
 10
2787.94577900217
 20
1818.772803134329
 30
0.0
 11
2789.19898300217
 21
1820.943416634329
 31
0.0
  0
LINE
  5
819
330
1F
100
AcDbEntity
  8
実線
100
AcDbLine
 10
2847.19258850217
 20
1820.943351134329
 30
0.0
 11
2848.44579250217
 21
1818.772737634329
 31
0.0
  0
LINE
  5
81A
330
1F
100
AcDbEntity
  8
実線
100
AcDbLine
 10
2787.94578600217
 20
1693.772737134329
 30
0.0
 11
2787.94578600217
 21
1721.272736634329
 31
0.0
  0
LINE
  5
81B
330
1F
100
AcDbEntity
  8
実線
100
AcDbLine
 10
2848.445796502171
 20
1693.772737134329
 30
0.0
 11
2848.445796502171
 21
1721.272736634329
 31
0.0
  0
LINE
  5
81C
330
1F
100
AcDbEntity
  8
実線
100
AcDbLine
 10
2803.19578200217
 20
1686.272813634329
 30
0.0
 11
2833.195781502169
 21
1686.272813634329
 31
0.0
  0
LINE
  5
81D
330
1F
100
AcDbEntity
  8
実線
100
AcDbLine
 10
2803.19578200217
 20
1671.272813634329
 30
0.0
 11
2833.195781502169
 21
1671.272813634329
 31
0.0
  0
LINE
  5
81E
330
1F
100
AcDbEntity
  8
実線
100
AcDbLine
 10
2787.94578600217
 20
1693.772737134329
 30
0.0
 11
2848.445796502171
 21
1693.772737134329
 31
0.0
  0
LINE
  5
81F
330
1F
100
AcDbEntity
  8
実線
100
AcDbLine
 10
2787.94578600217
 20
1703.772736634329
 30
0.0
 11
2848.445796502171
 21
1703.772736634329
 31
0.0
  0
LINE
  5
820
330
1F
100
AcDbEntity
  8
実線
100
AcDbLine
 10
2803.19578200217
 20
1686.272813634329
 30
0.0
 11
2803.19578200217
 21
1671.272813634329
 31
0.0
  0
LINE
  5
821
330
1F
100
AcDbEntity
  8
実線
100
AcDbLine
 10
2833.195781502169
 20
1686.272813634329
 30
0.0
 11
2833.195781502169
 21
1671.272813634329
 31
0.0
  0
LINE
  5
822
330
1F
100
AcDbEntity
  8
実線
100
AcDbLine
 10
2787.94578600217
 20
1813.772735134329
 30
0.0
 11
2848.029708502169
 21
1813.772735134329
 31
0.0
  0
LINE
  5
824
330
1F
100
AcDbEntity
  8
AM_0
370
    15
100
AcDbLine
 10
2745.94577900217
 20
1733.272782134329
 30
0.0
 11
2745.94577900217
 21
1784.27276613433
 31
0.0
  0
LINE
  5
825
330
1F
100
AcDbEntity
  8
AM_0
370
    15
100
AcDbLine
 10
2747.94578650217
 20
1733.272782134329
 30
0.0
 11
2747.94578650217
 21
1784.27276613433
 31
0.0
  0
LINE
  5
826
330
1F
100
AcDbEntity
  8
AM_0
370
    15
100
AcDbLine
 10
2749.94579400217
 20
1733.272782134329
 30
0.0
 11
2749.94579400217
 21
1784.27276613433
 31
0.0
  0
LINE
  5
827
330
1F
100
AcDbEntity
  8
AM_0
370
    15
100
AcDbLine
 10
2751.94576350217
 20
1733.272782134329
 30
0.0
 11
2751.94576350217
 21
1784.27276613433
 31
0.0
  0
LINE
  5
828
330
1F
100
AcDbEntity
  8
AM_0
370
    15
100
AcDbLine
 10
2753.94577150217
 20
1733.272782134329
 30
0.0
 11
2753.94577150217
 21
1784.27276613433
 31
0.0
  0
LINE
  5
829
330
1F
100
AcDbEntity
  8
AM_0
370
    15
100
AcDbLine
 10
2755.94577900217
 20
1733.272782134329
 30
0.0
 11
2755.94577900217
 21
1784.27276613433
 31
0.0
  0
LINE
  5
82A
330
1F
100
AcDbEntity
  8
実線
100
AcDbLine
 10
2743.94577150217
 20
1733.007355634329
 30
0.0
 11
2743.94577150217
 21
1784.538192634329
 31
0.0
  0
LINE
  5
82B
330
1F
100
AcDbEntity
  8
実線
100
AcDbLine
 10
2757.945786502169
 20
1730.425721134329
 30
0.0
 11
2757.945786502169
 21
1787.119827134329
 31
0.0
  0
LINE
  5
82C
330
1F
100
AcDbEntity
  8
実線
100
AcDbLine
 10
2790.216999502169
 20
1720.70495713433
 30
0.0
 11
2790.216999502169
 21
1796.840591134329
 31
0.0
  0
LINE
  5
82D
330
1F
100
AcDbEntity
  8
実線
100
AcDbLine
 10
2767.94578650217
 20
1727.834321134329
 30
0.0
 11
2767.94578650217
 21
1789.711227634329
 31
0.0
  0
LINE
  5
82E
330
1F
100
AcDbEntity
  8
実線
100
AcDbLine
 10
2769.46072200217
 20
1725.894033134329
 30
0.0
 11
2790.21699150217
 21
1720.704966134329
 31
0.0
  0
ARC
  5
82F
330
1F
100
AcDbEntity
  8
実線
100
AcDbCircle
 10
2756.94576350217
 20
1730.425721134329
 30
0.0
 40
1.0
100
AcDbArc
 50
261.8699000000047
 51
0.0
  0
ARC
  5
830
330
1F
100
AcDbEntity
  8
実線
100
AcDbCircle
 10
2745.94577900217
 20
1733.007355634329
 30
0.0
 40
2.0
100
AcDbArc
 50
179.9999910000004
 51
261.8698899999926
  0
LINE
  5
831
330
1F
100
AcDbEntity
  8
AM_0
370
    15
100
AcDbLine
 10
2743.94577150217
 20
1733.272782134329
 30
0.0
 11
2755.94577900217
 21
1733.272782134329
 31
0.0
  0
LINE
  5
832
330
1F
100
AcDbEntity
  8
実線
100
AcDbLine
 10
2745.66292400217
 20
1731.02744963433
 30
0.0
 11
2756.80434950217
 21
1729.435817634329
 31
0.0
  0
ARC
  5
833
330
1F
100
AcDbEntity
  8
実線
100
AcDbCircle
 10
2769.94579400217
 20
1727.834321134329
 30
0.0
 40
2.0
100
AcDbArc
 50
179.9999910000004
 51
255.9637429999992
  0
LINE
  5
834
330
1F
100
AcDbEntity
  8
実線
100
AcDbLine
 10
2769.46070850217
 20
1791.651526134329
 30
0.0
 11
2790.21699150217
 21
1796.840596634329
 31
0.0
  0
ARC
  5
835
330
1F
100
AcDbEntity
  8
実線
100
AcDbCircle
 10
2756.94576350217
 20
1787.119827134329
 30
0.0
 40
1.0
100
AcDbArc
 50
0.0
 51
100.9172609999912
  0
LINE
  5
836
330
1F
100
AcDbEntity
  8
AM_0
370
    15
100
AcDbLine
 10
2743.94577150217
 20
1784.27276613433
 30
0.0
 11
2757.945786502169
 21
1784.27276613433
 31
0.0
  0
ARC
  5
837
330
1F
100
AcDbEntity
  8
実線
100
AcDbCircle
 10
2745.94577900217
 20
1784.538192634329
 30
0.0
 40
2.0
100
AcDbArc
 50
98.13009999999527
 51
180.0000050000005
  0
LINE
  5
838
330
1F
100
AcDbEntity
  8
実線
100
AcDbLine
 10
2745.66295500217
 20
1786.518103634329
 30
0.0
 11
2756.80436150217
 21
1788.109733634329
 31
0.0
  0
ARC
  5
839
330
1F
100
AcDbEntity
  8
実線
100
AcDbCircle
 10
2769.94579400217
 20
1789.711227634329
 30
0.0
 40
2.0
100
AcDbArc
 50
104.0362459999968
 51
180.0000050000005
  0
LINE
  5
83A
330
1F
100
AcDbEntity
  8
実線
100
AcDbLine
 10
2787.94578600217
 20
1796.272735634329
 30
0.0
 11
2787.94578600217
 21
1818.772735134329
 31
0.0
  0
LINE
  5
83B
330
1F
100
AcDbEntity
  8
AM_0
370
    15
100
AcDbLine
 10
2856.44578900217
 20
1733.272782134329
 30
0.0
 11
2856.44578900217
 21
1784.27276613433
 31
0.0
  0
LINE
  5
83C
330
1F
100
AcDbEntity
  8
AM_0
370
    15
100
AcDbLine
 10
2858.44579650217
 20
1733.272782134329
 30
0.0
 11
2858.44579650217
 21
1784.27276613433
 31
0.0
  0
LINE
  5
83D
330
1F
100
AcDbEntity
  8
AM_0
370
    15
100
AcDbLine
 10
2860.44578500217
 20
1733.272782134329
 30
0.0
 11
2860.44578500217
 21
1784.27276613433
 31
0.0
  0
LINE
  5
83E
330
1F
100
AcDbEntity
  8
AM_0
370
    15
100
AcDbLine
 10
2862.44579250217
 20
1733.272782134329
 30
0.0
 11
2862.44579250217
 21
1784.27276613433
 31
0.0
  0
LINE
  5
83F
330
1F
100
AcDbEntity
  8
AM_0
370
    15
100
AcDbLine
 10
2864.445781002169
 20
1733.272782134329
 30
0.0
 11
2864.445781002169
 21
1784.27276613433
 31
0.0
  0
LINE
  5
840
330
1F
100
AcDbEntity
  8
AM_0
370
    15
100
AcDbLine
 10
2866.44578850217
 20
1733.272782134329
 30
0.0
 11
2866.44578850217
 21
1784.27276613433
 31
0.0
  0
LINE
  5
841
330
1F
100
AcDbEntity
  8
実線
100
AcDbLine
 10
2854.44578100217
 20
1733.007355634329
 30
0.0
 11
2854.44578100217
 21
1784.538192634329
 31
0.0
  0
LINE
  5
842
330
1F
100
AcDbEntity
  8
実線
100
AcDbLine
 10
2868.44579650217
 20
1727.834321134329
 30
0.0
 11
2868.44579650217
 21
1789.711227634329
 31
0.0
  0
LINE
  5
843
330
1F
100
AcDbEntity
  8
実線
100
AcDbLine
 10
2846.17458300217
 20
1720.70495713433
 30
0.0
 11
2846.17458300217
 21
1796.840591134329
 31
0.0
  0
LINE
  5
844
330
1F
100
AcDbEntity
  8
実線
100
AcDbLine
 10
2846.17456600217
 20
1720.705003134329
 30
0.0
 11
2866.93084900217
 21
1725.894073634329
 31
0.0
  0
LINE
  5
845
330
1F
100
AcDbEntity
  8
AM_0
370
    15
100
AcDbLine
 10
2854.44578100217
 20
1733.272782134329
 30
0.0
 11
2866.44578850217
 21
1733.272782134329
 31
0.0
  0
LINE
  5
846
330
1F
100
AcDbEntity
  8
実線
100
AcDbLine
 10
2856.16292250217
 20
1731.027448634329
 30
0.0
 11
2868.44579000217
 21
1729.272753134329
 31
0.0
  0
ARC
  5
847
330
1F
100
AcDbEntity
  8
実線
100
AcDbCircle
 10
2856.44578900217
 20
1733.007355634329
 30
0.0
 40
2.0
100
AcDbArc
 50
179.9999910000004
 51
261.8698899999926
  0
ARC
  5
848
330
1F
100
AcDbEntity
  8
実線
100
AcDbCircle
 10
2866.44578850217
 20
1727.834321134329
 30
0.0
 40
2.0
100
AcDbArc
 50
284.0362410000048
 51
0.0
  0
ARC
  5
849
330
1F
100
AcDbEntity
  8
実線
100
AcDbCircle
 10
2866.44578850217
 20
1727.834321134329
 30
0.0
 40
2.0
100
AcDbArc
 50
284.0362410000048
 51
0.0
  0
LINE
  5
84A
330
1F
100
AcDbEntity
  8
実線
100
AcDbLine
 10
2866.93087250217
 20
1791.651483134329
 30
0.0
 11
2846.17456600217
 21
1796.840559634329
 31
0.0
  0
LINE
  5
84B
330
1F
100
AcDbEntity
  8
AM_0
370
    15
100
AcDbLine
 10
2854.44578100217
 20
1784.27276613433
 30
0.0
 11
2868.44579650217
 21
1784.27276613433
 31
0.0
  0
LINE
  5
84C
330
1F
100
AcDbEntity
  8
実線
100
AcDbLine
 10
2856.16293950217
 20
1786.518103134329
 30
0.0
 11
2868.44578350217
 21
1788.272795134329
 31
0.0
  0
ARC
  5
84D
330
1F
100
AcDbEntity
  8
実線
100
AcDbCircle
 10
2856.44578900217
 20
1784.538192634329
 30
0.0
 40
2.0
100
AcDbArc
 50
98.13009999999527
 51
180.0000050000005
  0
ARC
  5
84E
330
1F
100
AcDbEntity
  8
実線
100
AcDbCircle
 10
2866.44578850217
 20
1789.711227634329
 30
0.0
 40
2.0
100
AcDbArc
 50
0.0
 51
75.96375899999518
  0
ARC
  5
84F
330
1F
100
AcDbEntity
  8
実線
100
AcDbCircle
 10
2866.44578850217
 20
1789.711227634329
 30
0.0
 40
2.0
100
AcDbArc
 50
0.0
 51
75.96375899999518
  0
LINE
  5
850
330
1F
100
AcDbEntity
  8
実線
100
AcDbLine
 10
2848.445796502171
 20
1796.272735634329
 30
0.0
 11
2848.445796502171
 21
1818.772735134329
 31
0.0
  0
ARC
  5
852
330
1F
100
AcDbEntity
  8
実線
100
AcDbCircle
 10
2818.19578200217
 20
1673.772813634329
 30
0.0
 40
149.999998
100
AcDbArc
 50
78.85386500000399
 51
101.1461340000027
  0
DIMENSION
  5
883
330
1F
100
AcDbEntity
  8
AM_5
100
AcDbDimension
  2
*D10
 10
935.9924300305264
 20
923.7727941343294
 30
0.0
 11
903.4924300305263
 21
1373.772802884329
 31
0.0
 70
    32
 71
     5
 42
900.0000175
  3
AM_ISO$0
100
AcDbAlignedDimension
 13
1306.523728311158
 23
1823.772811634329
 33
0.0
 14
1184.175248537076
 24
923.7727941343294
 34
0.0
 50
90.00000000000003
100
AcDbRotatedDimension
1001
ACAD
1000
DSTYLE
1002
{
1070
    40
1040
10.0
1002
}
  0
DIMENSION
  5
8A9
330
1F
100
AcDbEntity
  8
AM_5
100
AcDbDimension
  2
*D11
 10
1052.901478421874
 20
958.7727861343292
 30
0.0
 11
1020.401478421874
 21
1043.747659868482
 31
0.0
 70
    32
 71
     5
 42
34.99999949999983
  3
AM_ISO$0
100
AcDbAlignedDimension
 13
1184.17524850217
 23
923.7727866343293
 33
0.0
 14
1192.132219452353
 24
958.7727861343292
 34
0.0
 50
90.00000000000003
100
AcDbRotatedDimension
1001
ACAD
1000
DSTYLE
1002
{
1070
    40
1040
10.0
1002
}
  0
DIMENSION
  5
920
330
1F
100
AcDbEntity
  8
AM_5
100
AcDbDimension
  2
*D12
 10
2818.19578200217
 20
2066.338855444859
 30
0.0
 11
2070.536551408082
 21
2066.338855444859
 31
0.0
 70
   160
  1
支柱ピッチ最大1800
 71
     5
 42
1511.672055
  3
AM_ISO$0
100
AcDbAlignedDimension
 13
1306.52372700217
 23
1844.015120634329
 33
0.0
 14
2818.19578200217
 24
1844.015120634329
 34
0.0
100
AcDbRotatedDimension
1001
ACAD
1000
DSTYLE
1002
{
1070
    40
1040
10.0
1002
}
  0
INSERT
  5
988
330
1F
100
AcDbEntity
  8
AM_5
100
AcDbBlockReference
  2
*S15
 10
0.0
 20
0.0
 30
0.0
  0
DIMENSION
  5
99B
102
{ACAD_XDICTIONARY
360
9A8
102
}
102
{ACAD_REACTORS
330
9A9
102
}
330
1F
100
AcDbEntity
  8
AM_5
100
AcDbDimension
  2
*D13
 10
1052.901478421874
 20
2192.502414159956
 30
0.0
 11
1020.398033539984
 21
2317.502412159957
 31
0.0
 70
    32
  1
φ<>
 71
     5
 42
249.9999959999996
  3
AM_ISO$0
100
AcDbAlignedDimension
 13
1306.52372700217
 23
2442.502410159956
 33
0.0
 14
1306.52372700217
 24
2192.502414159956
 34
0.0
 50
90.0
100
AcDbRotatedDimension
1001
ACAD
1000
DSTYLE
1002
{
1070
    40
1040
10.0
1002
}
  0
ARC
  5
B8D
330
1F
100
AcDbEntity
  8
実線
100
AcDbCircle
 10
1311.02369650217
 20
2367.752350159956
 30
0.0
 40
2.0
100
AcDbArc
 50
179.9999970000023
 51
270.0
  0
LINE
  5
B8E
330
1F
100
AcDbEntity
  8
実線
100
AcDbLine
 10
1313.62593000217
 20
2349.252442159956
 30
0.0
 11
1299.42137100217
 21
2349.252442159956
 31
0.0
  0
LINE
  5
B8F
330
1F
100
AcDbEntity
  8
実線
100
AcDbLine
 10
1314.65391500217
 20
2367.752350159956
 30
0.0
 11
1304.52360500217
 21
2367.752350159956
 31
0.0
  0
LINE
  5
B90
330
1F
100
AcDbEntity
  8
実線
100
AcDbLine
 10
1297.42597550217
 20
2351.386842659956
 30
0.0
 11
1298.39352350217
 21
2365.752489659956
 31
0.0
  0
LINE
  5
B91
330
1F
100
AcDbEntity
  8
実線
100
AcDbLine
 10
1295.02365150217
 20
2345.481308659956
 30
0.0
 11
1296.39799850217
 21
2365.886891159956
 31
0.0
  0
ARC
  5
B92
330
1F
100
AcDbEntity
  8
実線
100
AcDbCircle
 10
1302.02360500217
 20
2367.752350159956
 30
0.0
 40
2.0
100
AcDbArc
 50
270.0
 51
0.0000029999976837
  0
ARC
  5
B93
330
1F
100
AcDbEntity
  8
実線
100
AcDbCircle
 10
1298.39353900217
 20
2365.752380659956
 30
0.0
 40
2.0
100
AcDbArc
 50
89.99999100000037
 51
176.1468719999989
  0
LINE
  5
B94
330
1F
100
AcDbEntity
  8
実線
100
AcDbLine
 10
1304.52360500217
 20
2367.752350159956
 30
0.0
 11
1298.39353900217
 21
2367.752350159956
 31
0.0
  0
LINE
  5
B95
330
1F
100
AcDbEntity
  8
実線
100
AcDbLine
 10
1298.39353900217
 20
2365.752380659956
 30
0.0
 11
1302.02360500217
 21
2365.752380659956
 31
0.0
  0
ARC
  5
B96
330
1F
100
AcDbEntity
  8
実線
100
AcDbCircle
 10
1299.42137100217
 20
2351.252411659956
 30
0.0
 40
2.0
100
AcDbArc
 50
176.1468619999964
 51
270.0
  0
LINE
  5
B97
330
1F
100
AcDbEntity
  8
実線
100
AcDbLine
 10
1315.62137550217
 20
2351.386787159956
 30
0.0
 11
1314.65382750217
 21
2365.752434659956
 31
0.0
  0
LINE
  5
B98
330
1F
100
AcDbEntity
  8
実線
100
AcDbLine
 10
1318.02362300217
 20
2345.481248159956
 30
0.0
 11
1316.64927600217
 21
2365.886831159956
 31
0.0
  0
ARC
  5
B99
330
1F
100
AcDbEntity
  8
実線
100
AcDbCircle
 10
1314.65391500217
 20
2365.752380659956
 30
0.0
 40
2.0
100
AcDbArc
 50
3.85313800000353
 51
90.00000500000048
  0
LINE
  5
B9A
330
1F
100
AcDbEntity
  8
実線
100
AcDbLine
 10
1314.65391500217
 20
2365.752380659956
 30
0.0
 11
1311.02369650217
 21
2365.752380659956
 31
0.0
  0
ARC
  5
B9B
330
1F
100
AcDbEntity
  8
実線
100
AcDbCircle
 10
1313.625930002169
 20
2351.252411659956
 30
0.0
 40
2.0
100
AcDbArc
 50
270.0
 51
3.85313800000353
  0
ARC
  5
B9C
330
1F
100
AcDbEntity
  8
実線
100
AcDbCircle
 10
1302.02375750217
 20
2267.252474159956
 30
0.0
 40
2.0
100
AcDbArc
 50
359.9999970000023
 51
90.0
  0
LINE
  5
B9D
330
1F
100
AcDbEntity
  8
実線
100
AcDbLine
 10
1299.42152400217
 20
2285.752382159956
 30
0.0
 11
1313.626083002169
 21
2285.752382159956
 31
0.0
  0
LINE
  5
B9E
330
1F
100
AcDbEntity
  8
実線
100
AcDbLine
 10
1298.393539002169
 20
2267.252474159956
 30
0.0
 11
1308.523849002169
 21
2267.252474159956
 31
0.0
  0
LINE
  5
B9F
330
1F
100
AcDbEntity
  8
実線
100
AcDbLine
 10
1315.621478502169
 20
2283.617981659956
 30
0.0
 11
1314.653930502169
 21
2269.252334659956
 31
0.0
  0
LINE
  5
BA0
330
1F
100
AcDbEntity
  8
実線
100
AcDbLine
 10
1318.023802502169
 20
2289.523515659956
 30
0.0
 11
1316.649455502169
 21
2269.117933159956
 31
0.0
  0
ARC
  5
BA1
330
1F
100
AcDbEntity
  8
実線
100
AcDbCircle
 10
1311.02384900217
 20
2267.252474159956
 30
0.0
 40
2.0
100
AcDbArc
 50
90.0
 51
180.0000029999977
  0
ARC
  5
BA2
330
1F
100
AcDbEntity
  8
実線
100
AcDbCircle
 10
1314.65391500217
 20
2269.252443659956
 30
0.0
 40
2.0
100
AcDbArc
 50
269.9999910000004
 51
356.1468719999989
  0
LINE
  5
BA3
330
1F
100
AcDbEntity
  8
実線
100
AcDbLine
 10
1308.523849002169
 20
2267.252474159956
 30
0.0
 11
1314.65391500217
 21
2267.252474159956
 31
0.0
  0
LINE
  5
BA4
330
1F
100
AcDbEntity
  8
実線
100
AcDbLine
 10
1314.65391500217
 20
2269.252443659956
 30
0.0
 11
1311.023849002169
 21
2269.252443659956
 31
0.0
  0
ARC
  5
BA5
330
1F
100
AcDbEntity
  8
実線
100
AcDbCircle
 10
1313.626083002169
 20
2283.752412659956
 30
0.0
 40
2.0
100
AcDbArc
 50
356.1468619999965
 51
90.0
  0
LINE
  5
BA6
330
1F
100
AcDbEntity
  8
実線
100
AcDbLine
 10
1297.426078502169
 20
2283.618037159956
 30
0.0
 11
1298.39362650217
 21
2269.252389659956
 31
0.0
  0
LINE
  5
BA7
330
1F
100
AcDbEntity
  8
実線
100
AcDbLine
 10
1295.023831002169
 20
2289.523576159956
 30
0.0
 11
1296.39817800217
 21
2269.117993159956
 31
0.0
  0
ARC
  5
BA8
330
1F
100
AcDbEntity
  8
実線
100
AcDbCircle
 10
1298.39353900217
 20
2269.252443659956
 30
0.0
 40
2.0
100
AcDbArc
 50
183.8531380000035
 51
270.0000050000005
  0
LINE
  5
BA9
330
1F
100
AcDbEntity
  8
実線
100
AcDbLine
 10
1298.393539002169
 20
2269.252443659956
 30
0.0
 11
1302.023757502169
 21
2269.252443659956
 31
0.0
  0
ARC
  5
BAA
330
1F
100
AcDbEntity
  8
実線
100
AcDbCircle
 10
1299.42152400217
 20
2283.752412659956
 30
0.0
 40
2.0
100
AcDbArc
 50
90.0
 51
183.8531380000035
  0
INSERT
  5
BAC
330
1F
100
AcDbEntity
  8
AM_5
100
AcDbBlockReference
  2
*S16
 10
0.0
 20
0.0
 30
0.0
  0
ARC
  5
C03
330
1F
100
AcDbEntity
  8
AM_0
100
AcDbCircle
 10
1299.108108105685
 20
1793.091508440273
 30
0.0
 40
1.000000014901161
100
AcDbArc
 50
194.3774202505143
 51
269.9999974955182
  0
ARC
  5
C04
330
1F
100
AcDbEntity
  8
AM_0
100
AcDbCircle
 10
1298.778976025607
 20
1794.375459245937
 30
0.0
 40
1.000000014901161
100
AcDbArc
 50
90.00000250446868
 51
194.377416608042
  0
ARC
  5
C05
330
1F
100
AcDbEntity
  8
AM_0
100
AcDbCircle
 10
1314.268477978732
 20
1794.375459245937
 30
0.0
 40
1.000000014901161
100
AcDbArc
 50
345.6225832782624
 51
90.00000250446868
  0
ARC
  5
C06
330
1F
100
AcDbEntity
  8
AM_0
100
AcDbCircle
 10
1313.939345898654
 20
1793.091508440273
 30
0.0
 40
1.000000014901161
100
AcDbArc
 50
269.9999974955182
 51
345.6225832782624
  0
ARC
  5
C07
330
1F
100
AcDbEntity
  8
AM_0
100
AcDbCircle
 10
1309.55610615256
 20
1791.091538957851
 30
0.0
 40
1.000000014901161
100
AcDbArc
 50
90.00000250446868
 51
175.9298543014126
  0
ARC
  5
C08
330
1F
100
AcDbEntity
  8
AM_0
100
AcDbCircle
 10
1303.491347851779
 20
1791.091538957851
 30
0.0
 40
1.000000014901161
100
AcDbArc
 50
0.0
 51
90.00000250446868
  0
ARC
  5
C09
330
1F
100
AcDbEntity
  8
AM_0
100
AcDbCircle
 10
1315.523665967013
 20
1727.091523699062
 30
0.0
 40
1.000000014901161
100
AcDbArc
 50
269.9999974955182
 51
0.0
  0
ARC
  5
C0A
330
1F
100
AcDbEntity
  8
AM_0
100
AcDbCircle
 10
1297.523788037326
 20
1727.091523699062
 30
0.0
 40
1.000000014901161
100
AcDbArc
 50
179.999991348572
 51
270.000000683243
  0
ARC
  5
C0B
330
1F
100
AcDbEntity
  8
AM_0
100
AcDbCircle
 10
1317.023757519748
 20
1721.338502458828
 30
0.0
 40
1.000000014901161
100
AcDbArc
 50
264.8836530524253
 51
0.0
  0
ARC
  5
C0C
330
1F
100
AcDbEntity
  8
AM_0
100
AcDbCircle
 10
1296.023696484591
 20
1721.338502458828
 30
0.0
 40
1.000000014901161
100
AcDbArc
 50
179.999991348572
 51
275.1163314659597
  0
ARC
  5
C0D
330
1F
100
AcDbEntity
  8
AM_0
100
AcDbCircle
 10
1306.52372700217
 20
1604.06616359164
 30
0.0
 40
116.7414760589599
100
AcDbArc
 50
84.88365806138764
 51
95.11634694757473
  0
ARC
  5
C0E
330
1F
100
AcDbEntity
  8
AM_0
100
AcDbCircle
 10
1315.523665967013
 20
1790.09155421664
 30
0.0
 40
1.000000014901161
100
AcDbArc
 50
0.0
 51
90.00000250446868
  0
ARC
  5
C0F
330
1F
100
AcDbEntity
  8
AM_0
100
AcDbCircle
 10
1297.523788037326
 20
1790.09155421664
 30
0.0
 40
1.000000014901161
100
AcDbArc
 50
90.00000250446868
 51
180.0000050089504
  0
ARC
  5
C10
330
1F
100
AcDbEntity
  8
AM_0
100
AcDbCircle
 10
1317.023757519748
 20
1795.844575456874
 30
0.0
 40
1.000000014901161
100
AcDbArc
 50
0.0
 51
95.11634694757473
  0
ARC
  5
C11
330
1F
100
AcDbEntity
  8
AM_0
100
AcDbCircle
 10
1296.023696484591
 20
1795.844575456874
 30
0.0
 40
1.000000014901161
100
AcDbArc
 50
84.88365806138764
 51
180.0000050089504
  0
ARC
  5
C12
330
1F
100
AcDbEntity
  8
AM_0
100
AcDbCircle
 10
1306.52372700217
 20
1913.116914324062
 30
0.0
 40
116.7414760589599
100
AcDbArc
 50
264.8836530524253
 51
275.1163419386124
  0
LINE
  5
C13
330
1F
100
AcDbEntity
  8
AM_0
100
AcDbLine
 10
1304.523757519748
 20
1791.091538957851
 30
0.0
 11
1297.523788037326
 21
1791.091538957851
 31
0.0
  0
LINE
  5
C14
330
1F
100
AcDbEntity
  8
AM_0
100
AcDbLine
 10
1303.491347851779
 20
1792.091523699062
 30
0.0
 11
1299.108108105685
 21
1792.091523699062
 31
0.0
  0
LINE
  5
C15
330
1F
100
AcDbEntity
  8
AM_0
100
AcDbLine
 10
1313.939345898654
 20
1792.091523699062
 30
0.0
 11
1309.55610615256
 21
1792.091523699062
 31
0.0
  0
LINE
  5
C16
330
1F
100
AcDbEntity
  8
AM_0
100
AcDbLine
 10
1298.139350406201
 20
1792.843153734232
 30
0.0
 11
1297.810248219586
 21
1794.127022754131
 31
0.0
  0
LINE
  5
C17
330
1F
100
AcDbEntity
  8
AM_0
100
AcDbLine
 10
1314.908045393856
 20
1792.843272592575
 30
0.0
 11
1315.237147580471
 21
1794.127141612474
 31
0.0
  0
LINE
  5
C18
330
1F
100
AcDbEntity
  8
AM_0
100
AcDbLine
 10
1298.778976025607
 20
1795.375443987148
 30
0.0
 11
1314.268477978732
 21
1795.375443987148
 31
0.0
  0
LINE
  5
C19
330
1F
100
AcDbEntity
  8
AM_0
100
AcDbLine
 10
1304.523757519748
 20
1791.091538957851
 30
0.0
 11
1304.523757519748
 21
1729.591523699062
 31
0.0
  0
LINE
  5
C1A
330
1F
100
AcDbEntity
  8
AM_0
100
AcDbLine
 10
1308.523696484592
 20
1791.091538957851
 30
0.0
 11
1308.523696484592
 21
1729.591523699062
 31
0.0
  0
LINE
  5
C1B
330
1F
100
AcDbEntity
  8
AM_0
100
AcDbLine
 10
1304.523757519748
 20
1729.591523699062
 30
0.0
 11
1308.523696484592
 21
1729.591523699062
 31
0.0
  0
LINE
  5
C1C
330
1F
100
AcDbEntity
  8
AM_0
100
AcDbLine
 10
1296.653712103972
 20
1726.598524135282
 30
0.0
 11
1295.171350378305
 21
1720.815644612542
 31
0.0
  0
LINE
  5
C1D
330
1F
100
AcDbEntity
  8
AM_0
100
AcDbLine
 10
1316.393822032889
 20
1726.598480117998
 30
0.0
 11
1317.876183758555
 21
1720.815600595259
 31
0.0
  0
LINE
  5
C1E
330
1F
100
AcDbEntity
  8
AM_0
100
AcDbLine
 10
1316.52372700217
 20
1728.091508440273
 30
0.0
 11
1316.52372700217
 21
1727.091523699062
 31
0.0
  0
LINE
  5
C1F
330
1F
100
AcDbEntity
  8
AM_0
100
AcDbLine
 10
1315.523665967013
 20
1726.091538957851
 30
0.0
 11
1297.523788037326
 21
1726.091538957851
 31
0.0
  0
LINE
  5
C20
330
1F
100
AcDbEntity
  8
AM_0
100
AcDbLine
 10
1295.023788037326
 20
1721.338502458828
 30
0.0
 11
1295.023788037326
 21
1758.591538957851
 31
0.0
  0
LINE
  5
C21
330
1F
100
AcDbEntity
  8
AM_0
100
AcDbLine
 10
1318.023665967013
 20
1721.338502458828
 30
0.0
 11
1318.023665967013
 21
1758.591538957851
 31
0.0
  0
LINE
  5
C22
330
1F
100
AcDbEntity
  8
AM_0
100
AcDbLine
 10
1296.52372700217
 20
1727.091523699062
 30
0.0
 11
1296.52372700217
 21
1728.091508440273
 31
0.0
  0
LINE
  5
C23
330
1F
100
AcDbEntity
  8
AM_0
100
AcDbLine
 10
1316.52372700217
 20
1728.091508440273
 30
0.0
 11
1316.52372700217
 21
1729.091569475429
 31
0.0
  0
LINE
  5
C24
330
1F
100
AcDbEntity
  8
AM_0
100
AcDbLine
 10
1296.653690254558
 20
1790.584513975289
 30
0.0
 11
1295.171328528892
 21
1796.367393498029
 31
0.0
  0
LINE
  5
C25
330
1F
100
AcDbEntity
  8
AM_0
100
AcDbLine
 10
1316.3938344101
 20
1790.584521040321
 30
0.0
 11
1317.876196135766
 21
1796.367400563061
 31
0.0
  0
LINE
  5
C26
330
1F
100
AcDbEntity
  8
AM_0
100
AcDbLine
 10
1316.52372700217
 20
1727.518006853359
 30
0.0
 11
1316.52372700217
 21
1790.09155421664
 31
0.0
  0
LINE
  5
C27
330
1F
100
AcDbEntity
  8
AM_0
100
AcDbLine
 10
1315.523665967013
 20
1791.091538957851
 30
0.0
 11
1308.523696484592
 21
1791.091538957851
 31
0.0
  0
LINE
  5
C28
330
1F
100
AcDbEntity
  8
AM_0
100
AcDbLine
 10
1295.023788037326
 20
1795.844575456874
 30
0.0
 11
1295.023788037326
 21
1758.591538957851
 31
0.0
  0
LINE
  5
C29
330
1F
100
AcDbEntity
  8
AM_0
100
AcDbLine
 10
1318.023665967013
 20
1795.844575456874
 30
0.0
 11
1318.023665967013
 21
1758.591538957851
 31
0.0
  0
LINE
  5
C2A
330
1F
100
AcDbEntity
  8
AM_0
100
AcDbLine
 10
1296.52372700217
 20
1790.09155421664
 30
0.0
 11
1296.52372700217
 21
1727.655335954921
 31
0.0
  0
LINE
  5
C2B
330
1F
100
AcDbEntity
  8
AM_0
100
AcDbLine
 10
1316.52372700217
 20
1789.091569475429
 30
0.0
 11
1316.52372700217
 21
1788.091508440273
 31
0.0
  0
POINT
  5
C33
330
1F
100
AcDbEntity
  8
AM_0
100
AcDbPoint
 10
1308.523696484592
 20
1791.091538957851
 30
0.0
  0
POINT
  5
C34
330
1F
100
AcDbEntity
  8
AM_0
100
AcDbPoint
 10
1304.523757519748
 20
1791.091538957851
 30
0.0
  0
POINT
  5
C35
330
1F
100
AcDbEntity
  8
AM_0
100
AcDbPoint
 10
1306.52372700217
 20
1796.375428728359
 30
0.0
  0
POINT
  5
C36
330
1F
100
AcDbEntity
  8
AM_0
100
AcDbPoint
 10
1308.523696484592
 20
1729.591523699062
 30
0.0
  0
POINT
  5
C37
330
1F
100
AcDbEntity
  8
AM_0
100
AcDbPoint
 10
1304.523757519748
 20
1729.591523699062
 30
0.0
  0
POINT
  5
C3C
330
1F
100
AcDbEntity
  8
AM_0
100
AcDbPoint
 10
1306.52372700217
 20
1726.091538957851
 30
0.0
  0
ARC
  5
C4B
330
1F
100
AcDbEntity
  8
AM_0
100
AcDbCircle
 10
2810.780163105686
 20
1793.091508440273
 30
0.0
 40
1.000000014901161
100
AcDbArc
 50
194.3774202505143
 51
269.9999974955182
  0
ARC
  5
C4C
330
1F
100
AcDbEntity
  8
AM_0
100
AcDbCircle
 10
2810.451031025607
 20
1794.375459245937
 30
0.0
 40
1.000000014901161
100
AcDbArc
 50
90.00000250446868
 51
194.377416608042
  0
ARC
  5
C4D
330
1F
100
AcDbEntity
  8
AM_0
100
AcDbCircle
 10
2825.940532978732
 20
1794.375459245937
 30
0.0
 40
1.000000014901161
100
AcDbArc
 50
345.6225832782624
 51
90.00000250446868
  0
ARC
  5
C4E
330
1F
100
AcDbEntity
  8
AM_0
100
AcDbCircle
 10
2825.611400898655
 20
1793.091508440273
 30
0.0
 40
1.000000014901161
100
AcDbArc
 50
269.9999974955182
 51
345.6225832782624
  0
ARC
  5
C4F
330
1F
100
AcDbEntity
  8
AM_0
100
AcDbCircle
 10
2821.228161152561
 20
1791.091538957851
 30
0.0
 40
1.000000014901161
100
AcDbArc
 50
90.00000250446868
 51
175.9298543014126
  0
ARC
  5
C50
330
1F
100
AcDbEntity
  8
AM_0
100
AcDbCircle
 10
2815.16340285178
 20
1791.091538957851
 30
0.0
 40
1.000000014901161
100
AcDbArc
 50
0.0
 51
90.00000250446868
  0
ARC
  5
C51
330
1F
100
AcDbEntity
  8
AM_0
100
AcDbCircle
 10
2827.195720967014
 20
1727.091523699062
 30
0.0
 40
1.000000014901161
100
AcDbArc
 50
269.9999974955182
 51
0.0
  0
ARC
  5
C52
330
1F
100
AcDbEntity
  8
AM_0
100
AcDbCircle
 10
2809.195843037326
 20
1727.091523699062
 30
0.0
 40
1.000000014901161
100
AcDbArc
 50
179.999991348572
 51
270.000000683243
  0
ARC
  5
C53
330
1F
100
AcDbEntity
  8
AM_0
100
AcDbCircle
 10
2828.695812519748
 20
1721.338502458828
 30
0.0
 40
1.000000014901161
100
AcDbArc
 50
264.8836530524253
 51
0.0
  0
ARC
  5
C54
330
1F
100
AcDbEntity
  8
AM_0
100
AcDbCircle
 10
2807.695751484592
 20
1721.338502458828
 30
0.0
 40
1.000000014901161
100
AcDbArc
 50
179.999991348572
 51
275.1163314659597
  0
ARC
  5
C55
330
1F
100
AcDbEntity
  8
AM_0
100
AcDbCircle
 10
2818.19578200217
 20
1604.06616359164
 30
0.0
 40
116.7414760589599
100
AcDbArc
 50
84.88365806138764
 51
95.11634694757473
  0
ARC
  5
C56
330
1F
100
AcDbEntity
  8
AM_0
100
AcDbCircle
 10
2827.195720967014
 20
1790.09155421664
 30
0.0
 40
1.000000014901161
100
AcDbArc
 50
0.0
 51
90.00000250446868
  0
ARC
  5
C57
330
1F
100
AcDbEntity
  8
AM_0
100
AcDbCircle
 10
2809.195843037326
 20
1790.09155421664
 30
0.0
 40
1.000000014901161
100
AcDbArc
 50
90.00000250446868
 51
180.0000050089504
  0
ARC
  5
C58
330
1F
100
AcDbEntity
  8
AM_0
100
AcDbCircle
 10
2828.695812519748
 20
1795.844575456874
 30
0.0
 40
1.000000014901161
100
AcDbArc
 50
0.0
 51
95.11634694757473
  0
ARC
  5
C59
330
1F
100
AcDbEntity
  8
AM_0
100
AcDbCircle
 10
2807.695751484592
 20
1795.844575456874
 30
0.0
 40
1.000000014901161
100
AcDbArc
 50
84.88365806138764
 51
180.0000050089504
  0
ARC
  5
C5A
330
1F
100
AcDbEntity
  8
AM_0
100
AcDbCircle
 10
2818.19578200217
 20
1913.116914324062
 30
0.0
 40
116.7414760589599
100
AcDbArc
 50
264.8836530524253
 51
275.1163419386124
  0
LINE
  5
C5B
330
1F
100
AcDbEntity
  8
AM_0
100
AcDbLine
 10
2816.195812519748
 20
1791.091538957851
 30
0.0
 11
2809.195843037326
 21
1791.091538957851
 31
0.0
  0
LINE
  5
C5C
330
1F
100
AcDbEntity
  8
AM_0
100
AcDbLine
 10
2815.16340285178
 20
1792.091523699062
 30
0.0
 11
2810.780163105686
 21
1792.091523699062
 31
0.0
  0
LINE
  5
C5D
330
1F
100
AcDbEntity
  8
AM_0
100
AcDbLine
 10
2825.611400898655
 20
1792.091523699062
 30
0.0
 11
2821.228161152561
 21
1792.091523699062
 31
0.0
  0
LINE
  5
C5E
330
1F
100
AcDbEntity
  8
AM_0
100
AcDbLine
 10
2809.811405406202
 20
1792.843153734232
 30
0.0
 11
2809.482303219587
 21
1794.127022754131
 31
0.0
  0
LINE
  5
C5F
330
1F
100
AcDbEntity
  8
AM_0
100
AcDbLine
 10
2826.580100393856
 20
1792.843272592575
 30
0.0
 11
2826.909202580472
 21
1794.127141612474
 31
0.0
  0
LINE
  5
C60
330
1F
100
AcDbEntity
  8
AM_0
100
AcDbLine
 10
2810.451031025607
 20
1795.375443987148
 30
0.0
 11
2825.940532978732
 21
1795.375443987148
 31
0.0
  0
LINE
  5
C61
330
1F
100
AcDbEntity
  8
AM_0
100
AcDbLine
 10
2816.195812519748
 20
1791.091538957851
 30
0.0
 11
2816.195812519748
 21
1729.591523699062
 31
0.0
  0
LINE
  5
C62
330
1F
100
AcDbEntity
  8
AM_0
100
AcDbLine
 10
2820.195751484592
 20
1791.091538957851
 30
0.0
 11
2820.195751484592
 21
1729.591523699062
 31
0.0
  0
LINE
  5
C63
330
1F
100
AcDbEntity
  8
AM_0
100
AcDbLine
 10
2816.195812519748
 20
1729.591523699062
 30
0.0
 11
2820.195751484592
 21
1729.591523699062
 31
0.0
  0
LINE
  5
C64
330
1F
100
AcDbEntity
  8
AM_0
100
AcDbLine
 10
2808.325767103972
 20
1726.598524135282
 30
0.0
 11
2806.843405378306
 21
1720.815644612542
 31
0.0
  0
LINE
  5
C65
330
1F
100
AcDbEntity
  8
AM_0
100
AcDbLine
 10
2828.065877032889
 20
1726.598480117998
 30
0.0
 11
2829.548238758555
 21
1720.815600595259
 31
0.0
  0
LINE
  5
C66
330
1F
100
AcDbEntity
  8
AM_0
100
AcDbLine
 10
2828.19578200217
 20
1728.091508440273
 30
0.0
 11
2828.19578200217
 21
1727.091523699062
 31
0.0
  0
LINE
  5
C67
330
1F
100
AcDbEntity
  8
AM_0
100
AcDbLine
 10
2827.195720967014
 20
1726.091538957851
 30
0.0
 11
2809.195843037326
 21
1726.091538957851
 31
0.0
  0
LINE
  5
C68
330
1F
100
AcDbEntity
  8
AM_0
100
AcDbLine
 10
2806.695843037326
 20
1721.338502458828
 30
0.0
 11
2806.695843037326
 21
1758.591538957851
 31
0.0
  0
LINE
  5
C69
330
1F
100
AcDbEntity
  8
AM_0
100
AcDbLine
 10
2829.695720967014
 20
1721.338502458828
 30
0.0
 11
2829.695720967014
 21
1758.591538957851
 31
0.0
  0
LINE
  5
C6A
330
1F
100
AcDbEntity
  8
AM_0
100
AcDbLine
 10
2808.19578200217
 20
1727.091523699062
 30
0.0
 11
2808.19578200217
 21
1728.091508440273
 31
0.0
  0
LINE
  5
C6B
330
1F
100
AcDbEntity
  8
AM_0
100
AcDbLine
 10
2828.19578200217
 20
1728.091508440273
 30
0.0
 11
2828.19578200217
 21
1729.091569475429
 31
0.0
  0
LINE
  5
C6C
330
1F
100
AcDbEntity
  8
AM_0
100
AcDbLine
 10
2808.325745254558
 20
1790.584513975289
 30
0.0
 11
2806.843383528893
 21
1796.367393498029
 31
0.0
  0
LINE
  5
C6D
330
1F
100
AcDbEntity
  8
AM_0
100
AcDbLine
 10
2828.0658894101
 20
1790.584521040321
 30
0.0
 11
2829.548251135767
 21
1796.367400563061
 31
0.0
  0
LINE
  5
C6E
330
1F
100
AcDbEntity
  8
AM_0
100
AcDbLine
 10
2828.19578200217
 20
1727.518006853359
 30
0.0
 11
2828.19578200217
 21
1790.09155421664
 31
0.0
  0
LINE
  5
C6F
330
1F
100
AcDbEntity
  8
AM_0
100
AcDbLine
 10
2827.195720967014
 20
1791.091538957851
 30
0.0
 11
2820.195751484592
 21
1791.091538957851
 31
0.0
  0
LINE
  5
C70
330
1F
100
AcDbEntity
  8
AM_0
100
AcDbLine
 10
2806.695843037326
 20
1795.844575456874
 30
0.0
 11
2806.695843037326
 21
1758.591538957851
 31
0.0
  0
LINE
  5
C71
330
1F
100
AcDbEntity
  8
AM_0
100
AcDbLine
 10
2829.695720967014
 20
1795.844575456874
 30
0.0
 11
2829.695720967014
 21
1758.591538957851
 31
0.0
  0
LINE
  5
C72
330
1F
100
AcDbEntity
  8
AM_0
100
AcDbLine
 10
2808.19578200217
 20
1790.09155421664
 30
0.0
 11
2808.19578200217
 21
1727.655335954921
 31
0.0
  0
LINE
  5
C73
330
1F
100
AcDbEntity
  8
AM_0
100
AcDbLine
 10
2828.19578200217
 20
1789.091569475429
 30
0.0
 11
2828.19578200217
 21
1788.091508440273
 31
0.0
  0
POINT
  5
C74
330
1F
100
AcDbEntity
  8
AM_0
100
AcDbPoint
 10
2820.195751484592
 20
1791.091538957851
 30
0.0
  0
POINT
  5
C75
330
1F
100
AcDbEntity
  8
AM_0
100
AcDbPoint
 10
2816.195812519748
 20
1791.091538957851
 30
0.0
  0
POINT
  5
C76
330
1F
100
AcDbEntity
  8
AM_0
100
AcDbPoint
 10
2818.19578200217
 20
1796.375428728359
 30
0.0
  0
POINT
  5
C77
330
1F
100
AcDbEntity
  8
AM_0
100
AcDbPoint
 10
2820.195751484592
 20
1729.591523699062
 30
0.0
  0
POINT
  5
C78
330
1F
100
AcDbEntity
  8
AM_0
100
AcDbPoint
 10
2816.195812519748
 20
1729.591523699062
 30
0.0
  0
POINT
  5
C79
330
1F
100
AcDbEntity
  8
AM_0
100
AcDbPoint
 10
2818.19578200217
 20
1726.091538957851
 30
0.0
  0
MTEXT
  5
DBD
330
1F
100
AcDbEntity
  8
AM_6
100
AcDbMText
 10
1498.723645801608
 20
965.2311602853687
 30
0.0
 40
35.0
 41
0.0
 71
     1
 72
     5
  1
FL
 73
     1
 44
1.0
1001
GENIUS_AMGTXT_16
1040
3.5
1040
0.12
1001
ACAD
1000
MTEXTBEGIN
1070
    73
1070
     1
1070
    44
1040
1.0
1070
    74
1070
     0
1000
MTEXTEND
  0
ENDSEC
  0
SECTION
  2
OBJECTS
  0
DICTIONARY
  5
C
330
0
100
AcDbDictionary
281
     1
  3
ACAD_COLOR
350
BE
  3
ACAD_GROUP
350
D
  3
ACAD_LAYOUT
350
1A
  3
ACAD_MATERIAL
350
BD
  3
ACAD_MLINESTYLE
350
17
  3
ACAD_PLOTSETTINGS
350
19
  3
ACAD_PLOTSTYLENAME
350
E
  3
ACAD_TABLESTYLE
350
11A
  3
ACDBHEADERROUNDTRIPXREC
350
E3F
  3
AcDbVariableDictionary
350
94
  3
AcmDictionary
350
5B
  3
AMG
350
41
  3
AMGSNAPSETTINGS
350
1B8
  3
ASE_INDEX_DICTIONARY
350
A22
  3
DWGPROPS
350
E3E
  0
DICTIONARY
  5
21F
330
2
100
AcDbDictionary
280
     1
281
     1
  3
AMLAYER_GROUPCOLORS
360
220
  0
DICTIONARY
  5
8F
330
1F
100
AcDbDictionary
280
     1
281
     1
  0
DICTIONARY
  5
2D8
330
2CF
100
AcDbDictionary
280
     1
281
     1
  3
ACAD_SORTENTS
360
2D9
  0
DICTIONARY
  5
302
330
301
100
AcDbDictionary
280
     1
281
     1
  3
ACAD_SORTENTS
360
303
  0
DICTIONARY
  5
4ED
330
3FC
100
AcDbDictionary
280
     1
281
     1
  3
ACAD_SORTENTS
360
4EE
  0
DICTIONARY
  5
9A8
330
99B
100
AcDbDictionary
280
     1
281
     1
  3
ACAD_DIMASSOC
360
9A9
  0
DICTIONARY
  5
BE
102
{ACAD_REACTORS
330
C
102
}
330
C
100
AcDbDictionary
281
     1
  0
DICTIONARY
  5
D
102
{ACAD_REACTORS
330
C
102
}
330
C
100
AcDbDictionary
281
     1
  0
DICTIONARY
  5
1A
102
{ACAD_REACTORS
330
C
102
}
330
C
100
AcDbDictionary
281
     1
  3
Model
350
22
  3
レイアウト1
350
1E
  3
レイアウト2
350
26
  0
DICTIONARY
  5
BD
102
{ACAD_REACTORS
330
C
102
}
330
C
100
AcDbDictionary
281
     1
  0
DICTIONARY
  5
17
102
{ACAD_REACTORS
330
C
102
}
330
C
100
AcDbDictionary
281
     1
  3
Standard
350
18
  0
DICTIONARY
  5
19
102
{ACAD_REACTORS
330
C
102
}
330
C
100
AcDbDictionary
281
     1
  0
ACDBDICTIONARYWDFLT
  5
E
102
{ACAD_REACTORS
330
C
102
}
330
C
100
AcDbDictionary
281
     1
  3
Normal
350
F
100
AcDbDictionaryWithDefault
340
F
  0
DICTIONARY
  5
11A
102
{ACAD_REACTORS
330
C
102
}
330
C
100
AcDbDictionary
281
     1
  3
Standard
350
11B
  0
DICTIONARY
  5
E3F
102
{ACAD_REACTORS
330
C
102
}
330
C
100
AcDbDictionary
281
     1
  0
DICTIONARY
  5
94
102
{ACAD_REACTORS
330
C
102
}
330
C
100
AcDbDictionary
281
     1
  3
CTABLESTYLE
350
138
  3
DIMASSOC
350
96
  3
INDEXCTL
350
95
  3
PROJECTNAME
350
CF7
  0
DICTIONARY
  5
5B
102
{ACAD_REACTORS
330
C
102
}
330
C
100
AcDbDictionary
281
     1
  3
AcmBOM
350
1B5
  3
AcmStdDictionary
350
61
  3
AMDTSECTSYM_ARROWCOLOR
350
123
  0
DICTIONARY
  5
41
102
{ACAD_REACTORS
330
C
102
}
330
C
100
AcDbDictionary
281
     1
  0
DICTIONARY
  5
1B8
102
{ACAD_REACTORS
330
C
102
}
330
C
100
AcDbDictionary
281
     1
  0
DICTIONARY
  5
A22
102
{ACAD_REACTORS
330
C
102
}
330
C
100
AcDbDictionary
281
     1
  3
ASEBlockHierarchyIndexRecord
350
A23
1001
DCO15
1040
1592299517.609
  0
XRECORD
  5
E3E
102
{ACAD_REACTORS
330
C
102
}
330
C
100
AcDbXrecord
280
     1
  1
DWGPROPS COOKIE
  2

  3

  4

  6

  7

  8

  9

300
AmdtFileType=84
301
=
302
=
303
=
304
=
305
=
306
=
307
=
308
=
309
=
 40
0.0227162962962963
 41
2454069.462247894
 42
2454778.443392106
  1

 90
        1
  0
DICTIONARY
  5
220
102
{ACAD_REACTORS
330
21F
102
}
330
21F
100
AcDbDictionary
280
     1
281
     1
  0
SORTENTSTABLE
  5
2D9
102
{ACAD_REACTORS
330
2D8
102
}
330
2D8
100
AcDbSortentsTable
330
2CF
331
2D7
  5
2D3
331
2D5
  5
2D1
331
2D3
  5
2D7
331
2D1
  5
2D5
331
2D6
  5
2D2
331
2D4
  5
2D0
331
2D2
  5
2D6
331
2D0
  5
2D4
  0
SORTENTSTABLE
  5
303
102
{ACAD_REACTORS
330
302
102
}
330
302
100
AcDbSortentsTable
330
301
  0
SORTENTSTABLE
  5
4EE
102
{ACAD_REACTORS
330
4ED
102
}
330
4ED
100
AcDbSortentsTable
330
3FC
331
408
  5
409
331
406
  5
407
331
404
  5
405
331
402
  5
403
331
409
  5
401
331
407
  5
408
331
405
  5
406
331
403
  5
404
331
401
  5
402
  0
DIMASSOC
  5
9A9
102
{ACAD_REACTORS
330
9A8
102
}
330
9A8
100
AcDbDimAssoc
330
99B
 90
        3
 70
     0
 71
     0
  1
AcDbOsnapPointRef
 72
     5
331
7C0
 73
     0
 91
        0
 40
1.570796326794896
 10
0.0
 20
0.0
 30
0.0
 75
     0
  1
AcDbOsnapPointRef
 72
     5
331
7C0
 73
     0
 91
        0
 40
4.712388980384689
 10
0.0
 20
0.0
 30
0.0
 75
     0
  0
LAYOUT
  5
22
102
{ACAD_XDICTIONARY
360
E42
102
}
102
{ACAD_REACTORS
330
1A
102
}
330
1A
100
AcDbPlotSettings
  1

  2
Adobe PDF.pc3
  4
User158
  6

 40
3.301999807357788
 41
3.301999807357788
 42
2.931976318359375
 43
3.12200927734375
 44
420.0
 45
297.0
 46
14.38301161154069
 47
11.78799545764923
 48
199.9999934879856
 49
150.0
140
4050.0
141
2820.0
142
1.0
143
10.0
 70
 11956
 72
     1
 73
     0
 74
     4
  7
monochrome.ctb
 75
    20
147
0.1
148
-199.9999934879856
149
-150.0
100
AcDbLayout
  1
Model
 70
     1
 71
     0
 10
0.0
 20
0.0
 11
12.0
 21
9.0
 12
0.0
 22
0.0
 32
0.0
 14
0.0
 24
0.0
 34
0.0
 15
0.0
 25
0.0
 35
0.0
146
0.0
 13
0.0
 23
0.0
 33
0.0
 16
1.0
 26
0.0
 36
0.0
 17
0.0
 27
1.0
 37
0.0
 76
     0
330
1F
1001
ACAD_PSEXT
1000
Adobe PDF.pc3
1000
Adobe PDF Converter
1000
My Documents
1000

1070
     0
  0
LAYOUT
  5
1E
102
{ACAD_XDICTIONARY
360
E40
102
}
102
{ACAD_REACTORS
330
1A
102
}
330
1A
100
AcDbPlotSettings
  1

  2

  4

  6

 40
0.0
 41
0.0
 42
0.0
 43
0.0
 44
0.0
 45
0.0
 46
0.0
 47
0.0
 48
0.0
 49
0.0
140
0.0
141
0.0
142
1.0
143
1.0
 70
   688
 72
     0
 73
     0
 74
     5
  7
monochrome.ctb
 75
    16
147
1.0
148
0.0
149
0.0
100
AcDbLayout
  1
レイアウト1
 70
     1
 71
     1
 10
0.0
 20
0.0
 11
420.0
 21
297.0
 12
0.0
 22
0.0
 32
0.0
 14
1.000000000000000E+20
 24
1.000000000000000E+20
 34
1.000000000000000E+20
 15
-1.000000000000000E+20
 25
-1.000000000000000E+20
 35
-1.000000000000000E+20
146
0.0
 13
0.0
 23
0.0
 33
0.0
 16
1.0
 26
0.0
 36
0.0
 17
0.0
 27
1.0
 37
0.0
 76
     0
330
1B
  0
LAYOUT
  5
26
102
{ACAD_XDICTIONARY
360
E44
102
}
102
{ACAD_REACTORS
330
1A
102
}
330
1A
100
AcDbPlotSettings
  1

  2

  4

  6

 40
0.0
 41
0.0
 42
0.0
 43
0.0
 44
0.0
 45
0.0
 46
0.0
 47
0.0
 48
0.0
 49
0.0
140
0.0
141
0.0
142
1.0
143
1.0
 70
   688
 72
     0
 73
     0
 74
     5
  7
monochrome.ctb
 75
    16
147
1.0
148
0.0
149
0.0
100
AcDbLayout
  1
レイアウト2
 70
     1
 71
     2
 10
0.0
 20
0.0
 11
12.0
 21
9.0
 12
0.0
 22
0.0
 32
0.0
 14
0.0
 24
0.0
 34
0.0
 15
0.0
 25
0.0
 35
0.0
146
0.0
 13
0.0
 23
0.0
 33
0.0
 16
1.0
 26
0.0
 36
0.0
 17
0.0
 27
1.0
 37
0.0
 76
     0
330
23
  0
MLINESTYLE
  5
18
102
{ACAD_REACTORS
330
17
102
}
330
17
100
AcDbMlineStyle
  2
STANDARD
 70
     0
  3

 62
   256
 51
90.0
 52
90.0
 71
     2
 49
0.5
 62
   256
  6
BYLAYER
 49
-0.5
 62
   256
  6
BYLAYER
  0
ACDBPLACEHOLDER
  5
F
102
{ACAD_REACTORS
330
E
102
}
330
E
  0
TABLESTYLE
  5
11B
102
{ACAD_REACTORS
330
11A
102
}
330
11A
100
AcDbTableStyle
  3
Standard
 70
     0
 71
     0
 40
1.5
 41
1.5
280
     0
281
     0
  7
STANDARD
140
4.5
170
     2
 62
     0
 63
     7
283
     0
274
    -2
284
     1
 64
     0
275
    -2
285
     1
 65
     0
276
    -2
286
     1
 66
     0
277
    -2
287
     1
 67
     0
278
    -2
288
     1
 68
     0
279
    -2
289
     1
 69
     0
  7
STANDARD
140
6.0
170
     5
 62
     0
 63
     7
283
     0
274
    -2
284
     1
 64
     0
275
    -2
285
     1
 65
     0
276
    -2
286
     1
 66
     0
277
    -2
287
     1
 67
     0
278
    -2
288
     1
 68
     0
279
    -2
289
     1
 69
     0
  7
STANDARD
140
4.5
170
     5
 62
     0
 63
     7
283
     0
274
    -2
284
     1
 64
     0
275
    -2
285
     1
 65
     0
276
    -2
286
     1
 66
     0
277
    -2
287
     1
 67
     0
278
    -2
288
     1
 68
     0
279
    -2
289
     1
 69
     0
  0
DICTIONARYVAR
  5
138
102
{ACAD_REACTORS
330
94
102
}
330
94
100
DictionaryVariables
280
     0
  1
STANDARD
  0
DICTIONARYVAR
  5
96
102
{ACAD_REACTORS
330
94
102
}
330
94
100
DictionaryVariables
280
     0
  1
2
  0
DICTIONARYVAR
  5
95
102
{ACAD_REACTORS
330
94
102
}
330
94
100
DictionaryVariables
280
     0
  1
0
  0
DICTIONARYVAR
  5
CF7
102
{ACAD_REACTORS
330
94
102
}
330
94
100
DictionaryVariables
280
     0
  1

  0
DICTIONARY
  5
1B5
102
{ACAD_REACTORS
330
5B
102
}
330
5B
100
AcDbDictionary
281
     1
  0
DICTIONARY
  5
61
102
{ACAD_REACTORS
330
5B
102
}
330
5B
100
AcDbDictionary
281
     1
  0
XRECORD
  5
123
102
{ACAD_REACTORS
330
5B
102
}
330
5B
100
AcDbXrecord
280
     1
 90
-1023410169
  0
XRECORD
  5
A23
102
{ACAD_REACTORS
330
A22
102
}
330
A22
100
AcDbXrecord
280
     1
330
2F6
330
507
330
6E3
330
6E4
330
0
  0
DICTIONARY
  5
E42
330
22
100
AcDbDictionary
280
     1
281
     1
  3
ACAD_XREC_ROUNDTRIP
360
E43
  0
DICTIONARY
  5
E40
330
1E
100
AcDbDictionary
280
     1
281
     1
  3
ACAD_XREC_ROUNDTRIP
360
E41
  0
DICTIONARY
  5
E44
330
26
100
AcDbDictionary
280
     1
281
     1
  3
ACAD_XREC_ROUNDTRIP
360
E45
  0
XRECORD
  5
E43
102
{ACAD_REACTORS
330
E42
102
}
330
E42
100
AcDbXrecord
280
     1
102
SHADEPLOT
 70
     0
102
SHADEPLOTRESLEVEL
 70
     2
102
SHADEPLOTCUSTOMDPI
 70
   300
  0
XRECORD
  5
E41
102
{ACAD_REACTORS
330
E40
102
}
330
E40
100
AcDbXrecord
280
     1
102
SHADEPLOT
 70
     0
102
SHADEPLOTRESLEVEL
 70
     2
102
SHADEPLOTCUSTOMDPI
 70
   300
  0
XRECORD
  5
E45
102
{ACAD_REACTORS
330
E44
102
}
330
E44
100
AcDbXrecord
280
     1
102
SHADEPLOT
 70
     0
102
SHADEPLOTRESLEVEL
 70
     2
102
SHADEPLOTCUSTOMDPI
 70
   300
  0
ENDSEC
  0
EOF
